<?xml version="1.0" standalone="no"?>
<!DOCTYPE svg PUBLIC "-//W3C//DTD SVG 1.1//EN" "http://www.w3.org/Graphics/SVG/1.1/DTD/svg11.dtd" >
<svg xmlns="http://www.w3.org/2000/svg" xmlns:xlink="http://www.w3.org/1999/xlink" version="1.1">
<metadata></metadata>
<defs>
<font id="oliveregular" horiz-adv-x="708" >
<font-face units-per-em="2048" ascent="1536" descent="-512" />
<missing-glyph horiz-adv-x="665" />
<glyph horiz-adv-x="0" />
<glyph horiz-adv-x="682" />
<glyph unicode=" "  horiz-adv-x="665" />
<glyph unicode="&#x09;" horiz-adv-x="665" />
<glyph unicode="&#xa0;" horiz-adv-x="665" />
<glyph unicode="!" horiz-adv-x="266" d="M59 61q0 43 37 62q2 6 15 10q4 0 11 1t11 1q55 0 68 -43v-2q4 -16 4 -24q0 -46 -35 -64q-18 -12 -41 -12q-49 0 -61 39l-5 10q-4 16 -4 22zM92 1528q0 12 10 20t23 8q9 0 17 -7t8 -19h2q12 -278 12 -971v-240q0 -10 -9.5 -18t-21.5 -8q-13 0 -22 7.5t-9 18.5v259 q0 686 -10 950z" />
<glyph unicode="&#x22;" horiz-adv-x="350" d="M55 1698q0 12 10.5 20t22.5 8q9 0 17 -7t8 -19h2q5 -153 8 -174v-13q0 -6 -2 -8v-164q0 -10 -9.5 -18t-21.5 -8q-13 0 -22 7.5t-9 18.5v150q0 21 2 27v10q0 14 -6 170zM227 1698q0 12 10.5 20t22.5 8q9 0 17 -7t8 -19h2q5 -153 8 -174v-13q0 -6 -2 -8v-164 q0 -10 -9.5 -18t-21.5 -8q-13 0 -22 7.5t-9 18.5v150q0 21 2 27v10q0 14 -6 170z" />
<glyph unicode="#" horiz-adv-x="1261" d="M94 539q0 12 7.5 21t17.5 9q40 -1 120.5 -2t120.5 -2h5q21 84 90 391h-103q-36 1 -111 2.5t-114 2.5q-11 0 -18 8t-7 20t7.5 21.5t17.5 9.5q39 -1 119 -2t121 -2h102q16 82 33 151q81 379 96 441q0 14 8.5 22t18.5 8q12 0 22 -10t10 -22v-4q-19 -83 -53.5 -242.5 t-40.5 -188.5q-5 -26 -16.5 -78t-16.5 -77q86 -2 220 -2h122q16 82 33 151q81 379 96 441q0 14 8.5 22t18.5 8q12 0 22.5 -10t10.5 -22v-5q-19 -83 -54 -244.5t-40 -185.5q-5 -26 -16.5 -77t-16.5 -76q121 0 223 6h2q10 0 16.5 -10.5t6.5 -20.5q1 -10 -5 -17t-16 -9h-2 q-113 -6 -237 -9q-60 -266 -91 -393q179 4 265 8h2q10 0 16 -10t6 -20q1 -10 -5 -17.5t-15 -9.5h-2q-117 -8 -283 -8q-88 -342 -194 -598q-4 -4 -5 -4q-17 -17 -30 -17q-10 0 -17.5 8t-7.5 19q0 4 2 6q108 274 189 584h-74q-168 0 -266 2q-87 -335 -195 -596l-4 -4 q-17 -17 -31 -17q-10 0 -17 8t-7 19q0 4 2 6q108 276 188 584h-2q-38 1 -113.5 2t-113.5 2q-10 0 -17.5 8.5t-7.5 20.5zM426 565q88 -2 281 -2h59q48 185 92 391h-139q-125 0 -201 2q-53 -238 -92 -391z" />
<glyph unicode="$" horiz-adv-x="653" d="M92 55q10 23 47 23h8q66 -34 140 -45q27 328 16 745l-10 17l-18 36t-21 43q-3 6 -12.5 26.5t-14.5 31.5q-70 149 -90 215q-39 126 -14 231q18 124 149 162q0 15 -1 43t-1 41q-5 18 4 27q5 10 23 10q10 0 21 -6.5t14 -16.5v-4q0 -13 1 -40t1 -42q16 2 51 2q77 0 156 -18 q11 0 20 -6q10 -7 10 -21q0 -12 -10 -22t-22 -10h-2q-8 2 -25 5t-25 5q-82 14 -131 14h-20q2 -51 6 -154.5t6 -154.5q14 -303 17 -391q55 -101 88 -203q27 -74 42.5 -127t29.5 -120.5t12.5 -129t-19.5 -117.5q0 -2 -2 -2q-47 -113 -174 -125l-12 -92q0 -4 -2 -4 q-13 -24 -33 -24q-19 0 -25 18v6q10 85 11 96q-76 5 -175 46l-4 2q-16 16 -10 30zM180 1243q12 -75 49 -176q25 -56 68 -137q-2 84 -10 233q-2 49 -6.5 158.5t-6.5 167.5q-60 -22 -84 -74q-31 -66 -10 -172zM346 31q58 9 84 49q70 91 16 328q-22 110 -77 233 q6 -324 -23 -610z" />
<glyph unicode="%" horiz-adv-x="802" d="M115 1337q0 71 32 123q48 76 129 76q21 0 21 -16q0 9 8 15.5t17 6.5q10 0 18 -4l4 -2h6q67 -27 88 -92q15 -54 -6 -113q-63 -159 -168 -166h-18q-57 0 -92 41q-25 26 -34.5 62.5t-4.5 68.5zM129 -59q76 190 143.5 424.5t104 393t94.5 429.5q69 317 98 440q0 29 27 29 q12 0 22.5 -9.5t10.5 -21.5q0 -4 -2 -4q-29 -125 -92 -430q-45 -214 -71.5 -330.5t-72 -299.5t-96 -336.5t-109.5 -295.5q0 -2 -4 -6q-11 -14 -28 -14q-11 0 -18 7.5t-7 19.5v4zM160 1319q0 -22 0.5 -33t7.5 -28t20 -29q41 -23 66 -23q9 0 25 4l2 2q49 16 86 78 q37 58 34 119q-4 75 -82 90q-4 0 -12 4q-8 8 -8 13q0 -9 -7 -16t-16 -7q-34 0 -58.5 -20t-36 -50t-16.5 -56t-5 -48zM383 168q0 69 33 123q48 76 129 76q8 0 14 -5t6 -12q0 9 8 16t17 7q10 0 18 -4l4 -2h6q68 -27 89 -93q15 -52 -7 -112q-63 -159 -168 -166h-18 q-57 0 -92 41q-25 26 -34.5 62.5t-4.5 68.5zM428 150q0 -66 29 -91q40 -22 65 -22q9 0 25 4l2 2q49 16 86 78q38 60 35 119q-4 75 -82 90q-5 0 -13 4q-8 8 -8 12q0 -9 -6.5 -15.5t-15.5 -6.5q-44 0 -72.5 -35.5t-36.5 -71.5t-8 -67z" />
<glyph unicode="&#x26;" horiz-adv-x="1007" d="M127 348q-11 126 23 299q21 162 90 268q-61 61 -90 220q-9 84 12 168q20 88 74 145l2 2q91 76 204 76q48 0 176 -27q7 0 19 -6q10 -7 10 -20q0 -12 -9.5 -22.5t-21.5 -10.5h-4q-16 4 -26 6q-102 24 -158 24q-98 0 -154 -67q-67 -87 -67 -240q0 -52 18.5 -105.5 t46.5 -84.5l9 -8q54 51 118 45q19 -3 25 -23q2 -8 2 -24q0 -5 -2 -7q-20 -43 -48 -63.5t-54 -20.5q-10 0 -37 9q-38 -53 -62 -142q-23 -85 -28 -153q-13 -175 -5 -267q18 -157 97 -239q49 -43 106 -43q75 0 142 67q63 66 79 156q24 100 2 191q-22 93 -84 131h-10 q-61 0 -114 20q-21 4 -21 29q0 12 4 18q6 9 17 13q28 4 45 4q51 0 96 -25q89 9 180 72q84 59 150 145q7 10 20 10q21 0 33 -24q7 -22 -6 -35q-72 -85 -156 -141q-78 -54 -160 -76q76 -79 82 -217q6 -146 -63 -256q-38 -61 -102 -98t-132 -37q-107 0 -174 92q-79 101 -94 272 z" />
<glyph unicode="'" horiz-adv-x="178" d="M55 1698q0 12 10.5 20t22.5 8q9 0 17 -7t8 -19h2q5 -153 8 -174v-13q0 -6 -2 -8v-164q0 -10 -9.5 -18t-21.5 -8q-13 0 -22 7.5t-9 18.5v150q0 21 2 27v10q0 14 -6 170z" />
<glyph unicode="(" horiz-adv-x="509" d="M76 586q-25 284 71 569q93 280 279 500l2 2q16 8 25 8q24 0 34 -20q11 -17 -4 -37v-2q-181 -201 -273.5 -470t-70.5 -530q19 -213 111.5 -389t253.5 -303q14 -14 8 -29q-5 -11 -17 -19.5t-24 -8.5q-10 0 -22 8q-163 133 -258 317t-115 404z" />
<glyph unicode=")" horiz-adv-x="397" d="M45 1642q10 17 29 17q14 0 24 -10q0 -1 1 -2t1 -2q110 -197 168 -441q53 -209 66 -461q11 -255 -19 -452q-47 -262 -176 -414v-2q-12 -8 -20 -8q-9 0 -20 7t-15 17q-6 19 6 35q71 74 115 183q39 95 57 215q26 160 12 444q-25 264 -67 434q-59 240 -160 400v2 q-12 21 -2 38z" />
<glyph unicode="*" horiz-adv-x="514" d="M72 1452q0 11 6.5 19t15.5 8q53 17 99 22q-41 38 -72 55l-2 3q-13 16 -6 34q9 19 28 19q5 0 21 -4q0 -2 2 -2q33 -22 82 -74q-4 47 -4 131q0 10 7.5 17.5t18.5 7.5q12 0 20.5 -7.5t8.5 -17.5q0 -55 2 -86q20 30 39 49q8 8 18 8q24 0 31 -20q9 -18 -4 -31q-31 -31 -68 -80 h27q12 0 33 -1t31 -1q24 0 24 -26q0 -11 -7 -19t-17 -8t-31 1t-31 1h-31q76 -84 125 -115l4 -2q13 -17 4 -35q-6 -16 -26 -16q-9 0 -21 4l-2 2q-42 27 -84 76l6 -61v-3q0 -10 -7.5 -17t-18.5 -7t-19 7t-8 17q-5 36 -12 115q-4 -8 -8 -12q-66 -95 -70 -100v-3h-2 q-7 -10 -20 -10q-21 0 -29 19q-3 10 2 18v8q0 7 4 11q8 8 14 8l62 92l2 2q-60 -6 -107 -23q-1 0 -3 -1t-3 -1q-10 0 -17 8.5t-7 20.5z" />
<glyph unicode="+" horiz-adv-x="825" d="M68 561q0 15 12 21q6 6 20 6q94 18 217 18h48q-7 186 -7 336q0 12 8.5 19.5t22.5 7.5t23.5 -7.5t9.5 -19.5q0 -179 6 -338l111 -6q123 -10 211 -10q12 0 20 -9t8 -22t-8 -22t-20 -9q-85 0 -213 11q-35 2 -109 6q8 -250 8 -385q0 -12 -9 -19.5t-21 -7.5q-14 0 -22.5 7.5 t-8.5 19.5q0 137 -8 387q-18 2 -50 2q-118 0 -213 -21h-2q-13 0 -23.5 10.5t-10.5 24.5z" />
<glyph unicode="," horiz-adv-x="286" d="M78 74q7 14 24 14h17q4 -4 6 -4q118 -103 137 -256q0 -92 -14 -131q-24 -66 -113 -119h-2q-1 0 -4 1t-4 1q-9 -2 -18.5 3t-10.5 16q-3 10 10 20q124 58 103 213q-19 138 -125 219q-2 0 0 2q-6 3 -6 21z" />
<glyph unicode="-" d="M78 512q0 14 4 14q39 0 126 -2t137 -2.5t123 1t134 5.5q2 0 3.5 -6t1 -12.5t-4.5 -7.5q-78 -6 -162 -7t-197 1t-161 2q-4 0 -4 14z" />
<glyph unicode="." horiz-adv-x="217" d="M41 61q0 43 37 62q2 6 14 10q4 0 11.5 1t11.5 1q55 0 67 -45q4 -16 4 -24q0 -46 -34 -64q-18 -12 -41 -12q-50 0 -62 39q-4 4 -4 10q-4 16 -4 22z" />
<glyph unicode="/" horiz-adv-x="632" d="M61 -68q76 188 144 423t104 392.5t94 430.5q56 261 99 440q0 14 7 21.5t17 7.5q14 0 24.5 -9.5t10.5 -21.5q0 -1 -1 -2t-1 -2q-19 -83 -54 -244.5t-40 -185.5q-43 -207 -70 -329t-71.5 -301.5t-95 -334t-109.5 -297.5q0 -4 -4 -4q-13 -16 -31 -16q-23 0 -23 26v6z" />
<glyph unicode="0" horiz-adv-x="739" d="M72 756q-3 207 22 399q23 182 70 301q-2 10 2 23l2 2q8 8 10 12q2 3 15 16q4 8 14 23l2 2q9 9 18 6q61 43 125 43q51 0 99 -31q42 -24 75 -86q105 -163 136 -481h2q18 -347 -21 -588v-2l-2 -14q-13 -53 -20.5 -82t-23.5 -79t-31.5 -82t-40 -66.5t-52.5 -55.5 q-60 -45 -119 -45q-84 0 -147 97q-67 103 -101 292q-34 170 -34 396zM121 743q0 -262 49 -442q7 -27 11 -40.5t13 -42.5t16 -46.5t19 -41.5t24 -39t27.5 -28t32.5 -18l2 -2q23 -10 45 -10q60 0 110.5 64.5t74.5 152.5v2q76 200 76 567q-16 366 -107 543v2q-13 51 -42 89.5 t-64 53.5q-30 15 -62 15q-60 0 -106 -52q-51 -70 -90 -272q-29 -246 -29 -455z" />
<glyph unicode="1" horiz-adv-x="460" d="M82 1470q-10 20 8 35q4 4 6 4q104 34 207 47h2q31 0 31 -24q17 -193 25.5 -413t8 -409t-0.5 -403q0 -47 -1 -146.5t-1 -150.5q0 -10 -8.5 -17t-22.5 -7t-23.5 7t-9.5 17q0 55 1 163t1 159q3 355 -1 600t-9.5 342.5t-15.5 220.5q-107 -21 -142 -41h-2q-6 -4 -20 -4 q-26 0 -33 20z" />
<glyph unicode="2" horiz-adv-x="600" d="M80 1255v2q13 104 70 193q68 109 163 109q16 0 31 -3q111 -15 158 -137q34 -85 28 -219q-3 -131 -55 -225q-14 -53 -78 -156q-42 -60 -57 -98q-2 -2 -2 -4q-33 -47 -59 -109t-35.5 -94.5t-32.5 -118.5l-2 -10l-2 -14q-47 -228 -45 -355q28 6 112 19q114 14 199 37h4 q10 0 17.5 -8t7.5 -19q0 -12 -7 -20.5t-16 -10.5q-81 -26 -221 -41q-20 -3 -59.5 -9t-59.5 -9h-4q-10 0 -19 8t-10 19q-10 154 35 323q15 111 32 184.5t52 137.5q23 47 92 166q95 152 129 243q20 60 29 132t-3.5 154t-53.5 128q-47 53 -99 53q-60 0 -122 -84 q-53 -83 -62 -168q0 -10 -8 -18q-12 -4 -16 -4q-13 0 -22 7t-9 19z" />
<glyph unicode="3" horiz-adv-x="579" d="M88 1456q-7 22 8 31l2 2q97 55 156 55q46 0 86 -24q38 -25 62.5 -79.5t33.5 -109.5v-2q6 -93 -30 -176q-30 -67 -87 -111q96 -52 142 -219q34 -121 43 -295q10 -70 10 -196q0 -155 -51 -244l-2 -2q-82 -98 -197 -113q-20 -4 -37 -4q-40 0 -73 17q-42 19 -54 55v6 q0 11 7 18t18 7q23 0 27 -21q13 -28 65 -28q68 0 115 30q107 52 119 183q9 49 10.5 108.5t-1 97t-9.5 111.5v10q-2 39 -6.5 83t-18.5 109t-35 116t-58 90.5t-85 46.5q-51 -11 -84 -9q-23 0 -23 27q0 23 19 27q50 13 88 10q68 27 106 102q35 72 29 162q-22 115 -70 154 q-22 14 -53 14q-54 0 -125 -51l-2 -2q-9 -6 -18 -6q-20 0 -27 20z" />
<glyph unicode="4" horiz-adv-x="612" d="M96 424q9 86 30.5 195.5t35 164t47.5 191.5q99 382 117 590q0 6 -4 10q-3 2 -3 4q-6 18 3 33q6 12 22 12t23 -10l4 -4q0 -7 4 -11q4 -8 4 -14v-18q0 -2 -1 -8t-1 -9v-6q-9 -92 -31.5 -207t-36 -172t-49.5 -200q-89 -350 -108 -521q90 -4 131 -4q77 0 151 9 q-6 588 43 1083q7 20 27 20q15 0 20 -8q7 -7 4 -16q-49 -481 -43 -1073h13q9 0 16.5 -8.5t7.5 -18.5q0 -13 -8 -18q-7 -7 -18 -7q-7 0 -11 -2q0 -17 11 -395q0 -12 -9 -18q-8 -4 -16 -4q-11 0 -19 7t-8 17q-8 268 -10 387q-64 -6 -143 -6q-81 0 -172 6q-15 0 -19 8 q-4 4 -4 21z" />
<glyph unicode="5" horiz-adv-x="706" d="M104 1493v2q0 10 7 17.5t18 7.5q101 28 262 28q103 0 150 -4q9 0 15.5 -6.5t6.5 -15.5q0 -12 -7.5 -20.5t-18.5 -8.5q-92 6 -158 6q-36 0 -98 -4h-2q-42 0 -107 -14q-6 -2 -7 -4t-1 -6t2 -17q4 -16 4 -29q-3 -43 -6 -84q-9 -178 -2 -247q62 32 123 32q53 0 98 -28h2 q100 -77 166 -258l2 -2q54 -168 63 -334q12 -185 -36 -342l-2 -2l-3 -6q-42 -83 -71 -115q-40 -42 -88 -57q-32 -13 -68 -13q-88 0 -203 82q-2 0 -2 2q-14 11 -6 27q10 20 33 20q12 0 18 -6q44 -38 89.5 -57t78.5 -19q19 0 27 2q53 12 80 41.5t35 61.5q0 2 2 2q24 49 37 107 t16 97.5t6 110.5q6 159 -49 351q-35 107 -86 178q-70 102 -150 102q-54 0 -112 -49q-4 -4 -10 -4q-15 0 -21 2q-18 7 -18 22q-8 64 -4 230q4 142 -5 221z" />
<glyph unicode="6" horiz-adv-x="620" d="M111 803q0 312 43 534v2q25 97 55 150q48 87 129 96h2q10 0 17.5 -7.5t7.5 -18.5t-7 -19t-16 -8q-34 -3 -60.5 -32t-41.5 -73.5t-21.5 -74.5t-11.5 -62v-2q-33 -144 -45 -420q-1 -22 -4 -65.5t-4 -63.5q0 -116 16 -354l6 -80q4 -38 11.5 -74.5t22.5 -77t41.5 -70.5 t61.5 -40q10 -4 31 -4q63 0 102 67q37 60 37 132q-10 83 -29 142.5t-63 100.5v2q-30 41 -63 41q-49 0 -101 -80l-2 -2q-9 -12 -22 -12q-17 0 -27 16t0 33q0 2 2 4q72 97 137 97q4 0 29 -5q52 -10 87.5 -53.5t51.5 -85.5q56 -134 56 -239v-2q-13 -73 -45 -119 q-43 -65 -105 -88q-37 -11 -59 -11q-104 0 -164 138q-45 104 -45 219v12q-20 306 -10 457z" />
<glyph unicode="7" horiz-adv-x="624" d="M90 1540q0 11 6.5 19t16.5 8q4 0 4 -2q68 -21 145 -21q50 0 152 12q13 1 36 4.5t35 4.5q2 2 17 2q19 0 22 -19q2 -6 2 -26q-40 -84 -66.5 -176.5t-42.5 -205.5t-22.5 -184.5t-15.5 -205.5l-6 -68q0 -92 -6 -184v-13q24 4 32 4q51 10 66 15h4q11 0 20 -9.5t9 -21.5 q0 -9 -11 -16q-6 -6 -16 -6q-49 -10 -61 -11q-7 -1 -22.5 -3t-22.5 -3q-5 -92 -5 -121q-11 -64 -10.5 -155.5t23.5 -153.5v-6q0 -9 -7.5 -16t-19.5 -7q-9 0 -17.5 6t-9.5 15q-16 46 -20 109t-1.5 101.5t9.5 108.5q0 15 1 52t1 59h-22q-34 0 -60 16l-2 2q-16 13 -6 33 q8 19 27 19q8 0 18 -7q1 0 2 -1t2 -1q8 -8 33 -8h10q2 14 2 43q6 102 6 193v2q6 45 9 86q10 152 19.5 245t37.5 224.5t72 236.5q-24 -3 -45 -6q-106 -12 -158 -12q-77 0 -145 22q-19 4 -19 27z" />
<glyph unicode="8" horiz-adv-x="657" d="M109 782q32 210 114 297q-41 21 -65 74q-26 60 -23 133q3 69 30 128t75 79v2q0 13 8 21q39 45 90 45q47 0 90 -43q38 -38 53 -91q20 -57 21 -116.5t-24.5 -118t-78.5 -94.5q40 -15 72 -58q39 -48 61 -131q52 -190 33 -479v-4q-8 -137 -28 -219q-33 -124 -111 -193 q-46 -37 -88 -37q-77 0 -143 113q-52 88 -64 172q-50 247 -22 520zM162 698q-17 -319 41 -491v-2q13 -57 53 -111q38 -61 88 -61q30 0 59 26q65 54 97 220q30 228 10 479q0 3 -1 9t-1 9q-26 136 -49 185q-44 96 -119 96q-11 0 -27 -4h-4q-11 0 -18 10h-10q-65 -50 -95 -162 q-24 -86 -24 -203zM182 1255q6 -29 11 -46.5t17 -35.5t28 -26l2 -2q19 -16 45 -19q33 17 53 21h4q11 0 23 -8q1 0 2.5 1t3.5 2.5t4 2.5q55 37 71 117q9 66 -6 143q-19 43 -44.5 72.5t-51.5 29.5q-14 0 -27 -10q0 -4 5 -4q6 -6 6 -18q0 -11 -8 -21t-19 -10h-2q-6 2 -16 2 q-49 0 -76 -70q-25 -64 -25 -121z" />
<glyph unicode="9" horiz-adv-x="552" d="M104 72q6 16 25 16q14 0 23 -12q2 -2 3.5 -4t3.5 -5.5t3 -5.5q32 -53 53 -53q7 0 16 6q28 18 66 74l4 8q69 150 98 293q22 139 0 389l-4 37q-15 153 -22 252q-38 -47 -92 -47q-47 0 -94 32.5t-72 82.5v2q-50 114 -11 260q6 43 35 82q-6 6 -6 14q-3 16 8 23l2 2 q57 40 101 57h2q10 2 28 2q107 0 154 -178v-2q18 -131 -8 -232q7 -111 22 -288q12 -111 21 -215q0 -53 2 -78q4 -109 -4 -148q-1 -5 -13.5 -56.5t-19.5 -84.5v-2q-1 -3 -22 -68q-15 -50 -26 -80.5t-34 -72.5t-51 -70q-39 -45 -82 -45q-55 0 -107 82q-12 16 -2 33zM145 1296 q0 -150 70 -196h2q30 -27 64 -27q26 0 49.5 22.5t36.5 71.5q-11 143 -11 281q-26 66 -67 74q-4 2 -13 2q-12 0 -38 -11q8 -8 8 -16q0 -12 -9 -21.5t-20 -9.5h-2q-1 0 -3 1t-3 1q-34 0 -51 -67q-13 -49 -13 -105z" />
<glyph unicode=":" horiz-adv-x="266" d="M59 305q0 43 37 62q2 6 15 10q4 0 11 1t11 1q25 0 43.5 -12t24.5 -33q4 -16 4 -25q0 -45 -35 -63q-20 -13 -41 -13q-49 0 -61 39q-5 5 -5 11q-4 16 -4 22zM59 649q0 43 37 62q2 6 15 10q4 0 11 1t11 1q25 0 43.5 -12t24.5 -33q4 -16 4 -25q0 -45 -35 -63q-18 -12 -41 -12 q-49 0 -61 38q-5 5 -5 11q-4 16 -4 22z" />
<glyph unicode=";" horiz-adv-x="245" d="M-139 -29q0 11 10.5 18t22.5 7q10 0 22 -4l8 -4q1 -2 0 -3.5t-2 -3.5t3 -7t14 -13q50 -33 73 -33q19 0 37 23v2q60 75 60 178v2q26 116 6 324q-6 159 -6 164t9 8.5t21 3.5q29 0 29 -12q0 -37 10 -185q1 -11 3 -51.5t2.5 -56t1.5 -51t0 -56t-2.5 -50.5t-5 -56t-9.5 -52 q0 -5 -2.5 -14t-3.5 -12q-5 -21 -10.5 -36t-17 -35t-32 -34.5t-49.5 -23.5q-30 -10 -51 -10q-17 0 -30 2t-21 3.5t-18.5 8t-14 9t-15.5 13t-16 13.5q-5 5 -13 12t-9 8q-4 0 -4 4zM57 901q0 43 37 62q2 6 15 10q4 0 11 1t11 1q25 0 43.5 -12t24.5 -33q4 -16 4 -25 q0 -45 -35 -63q-20 -13 -41 -13q-49 0 -61 39q-5 5 -5 11q-4 16 -4 22z" />
<glyph unicode="&#x3c;" horiz-adv-x="714" d="M113 545q18 36 47 67.5t44 42.5t57 39q7 5 11 8l9 5q27 23 67 63q18 13 54 46t59 50q16 13 33 13q20 0 36 -13q27 -24 27 -51q0 -29 -27 -45q0 -2 -1.5 -3t-4 -2t-4.5 -3q-31 -14 -59 -49q-8 -7 -26.5 -23.5t-31.5 -26t-28 -14.5q-56 -48 -68 -55q-42 -33 -57 -53 q3 -3 14.5 -14t16.5 -19q15 -15 22 -27q31 -24 55 -55q67 -52 158 -135q15 0 23 -8q18 -13 18 -45q-3 -25 -21.5 -42t-41.5 -14q-19 0 -27 4q-132 102 -317 287h-5q-23 8 -31 30.5t-1 41.5z" />
<glyph unicode="=" horiz-adv-x="722" d="M82 659q0 31 22 31q80 0 119 -2q30 0 93.5 -1t95.5 -1q116 0 211 6h2q18 0 22 -24q3 -31 -18 -35l-2 -2q-94 -6 -217 -6q-103 0 -154 2h-152q-22 0 -22 32zM88 410q0 30 23 30q79 0 118 -2q30 0 93.5 -1t95.5 -1q116 0 211 6h2q18 0 22 -24q3 -31 -18 -35l-2 -2 q-94 -6 -217 -6q-103 0 -154 2h-151q-23 0 -23 33z" />
<glyph unicode="&#x3e;" horiz-adv-x="669" d="M102 242q0 29 27 45q0 2 1.5 3t4 2t4.5 3q33 14 60 49q8 7 26.5 23.5t31.5 26t28 14.5q58 50 67 55q44 35 58 53q-3 3 -14.5 14t-16.5 19q-19 19 -23 26q-29 22 -55 56q-67 52 -158 135q-14 0 -22 8q-19 14 -19 45q3 25 22 41.5t42 13.5q19 0 27 -4q137 -106 317 -286h4 q23 -8 31.5 -30.5t1.5 -41.5q-19 -38 -51 -71.5t-48.5 -45.5t-60.5 -41l-8 -4q-34 -29 -68 -63q-18 -13 -53.5 -46.5t-58.5 -50.5q-15 -12 -33 -12q-22 0 -37 12q-27 24 -27 52z" />
<glyph unicode="?" horiz-adv-x="688" d="M78 1206q0 112 80 215q84 113 196 113h15q112 0 176 -92q54 -77 63 -195v-2q0 -109 -39 -207q-5 -12 -11 -24t-14.5 -24.5t-13.5 -21t-17 -22.5t-16.5 -19t-19 -20.5t-17 -18l-19.5 -19.5l-17 -17l-31 -31q-116 -110 -133 -301q-18 -164 0 -332v-2q0 -16 -8.5 -25 t-20.5 -9q-11 0 -19.5 9t-8.5 25q-6 85 -8 135t0.5 127t17 142.5t41.5 124.5q14 35 39.5 72t44.5 58t55 58q35 37 55 59t43 57.5t35 70.5q32 92 19 196q-15 125 -86 168q-42 25 -82 25q-91 0 -168 -90q-34 -40 -54 -89.5t-20 -93.5q0 -10 -8.5 -17t-20.5 -7t-20 7t-8 17z M205 43q0 2 4 6q0 4 2 6q4 4 8 6q8 22 43 31q8 4 12 4q11 0 19 -12q3 -10 0 -23q4 -8 4 -12q0 -14 -2 -22q-3 -10 -10 -13v-2q0 -4 -2 -6q-2 -11 -15 -20q-6 -6 -14 -6q-6 0 -14 4q-1 1 -4.5 2t-4.5 2q-7 7 -22 37h-2q-7 10 -2 18z" />
<glyph unicode="@" horiz-adv-x="1161" d="M86 897q25 300 154 461q0 1 -1 3.5t-1 4.5q0 4 8 16q2 0 2 2q2 1 6 3.5t6 3.5q25 17 33 20q4 3 12 9.5t12 9.5q3 0 5 2q9 3 22 0q98 36 209 36q174 0 278 -96q179 -141 232 -416v-2q34 -287 -29 -508v-4l-4 -8q-58 -118 -102 -174q-75 -100 -187 -141v-2 q-103 -35 -192 -35q-126 0 -223.5 69t-159.5 201q-105 228 -80 545zM145 748q0 -231 82 -377v-2q43 -88 101.5 -145.5t152.5 -73.5q53 -11 84 -11q110 0 194.5 57t125.5 132l2 2q80 105 104.5 220.5t24.5 260.5q-11 128 -41.5 225.5t-61.5 145.5t-73 90l-4 4 q-26 46 -75.5 78.5t-109.5 44.5h-2q-49 14 -110 14q-117 0 -203 -55q-35 -26 -63 -66.5t-42 -72t-34 -84.5q-52 -192 -52 -387zM356 1130q-6 20 9 35q2 2 4 2q98 50 161 50q62 0 109 -33q44 -25 76.5 -76t44.5 -115q17 -61 20.5 -133.5t-0.5 -130.5q0 -13 -1 -38t-1 -38 v-200q0 -9 -2 -13q0 -10 -6 -16q-8 -8 -18 -8q-161 0 -234 24q-54 20 -94 56q-41 44 -53 104v2q-19 141 69 252q31 54 121 74q10 2 31 2q8 0 23 -1t22 -1q14 -2 41 -2q22 0 37 6q-22 131 -84 188q-45 45 -99 45q-53 0 -124 -47h-2q-8 -4 -21 -4q-23 0 -29 16zM424 598 q22 -85 117 -111q62 -18 186 -18v156q0 40 2 63q0 139 -6 186h-47q-12 3 -25 3q-42 0 -64 -1.5t-52 -11t-50 -28.5q-36 -48 -52 -111t-9 -127z" />
<glyph unicode="A" horiz-adv-x="856" d="M53 29l2 2q29 164 74 463q56 363 88 530q55 277 135 516q0 10 9.5 18.5t21.5 8.5t20.5 -7.5t8.5 -17.5q224 -662 387 -1509q3 -13 -6 -25q-10 -10 -25 -10q-24 0 -27 29q-5 26 -55 270q-91 6 -188 6q-104 0 -338 -12q-17 -104 -45 -262q0 -11 -9 -25q-12 -8 -20 -8 q-10 0 -20 10q-13 10 -13 23zM168 352h8q236 13 330 13q75 0 168 -7q-128 590 -291 1084q-63 -211 -106 -432.5t-87 -515.5q-7 -51 -22 -142z" />
<glyph unicode="B" horiz-adv-x="813" d="M45 1497v6q0 9 8.5 16t20.5 7q14 0 20 -6q4 6 17 10q9 0 26 1t25 1q172 0 297 -125q124 -121 133 -299q2 -20 2 -39q0 -106 -70 -182q-50 -53 -135 -90q140 -12 225 -76q76 -57 114 -155q30 -77 31 -164q0 -23 -3 -48q-27 -217 -248 -307q-147 -59 -408 -59q-24 0 -24 28 q0 12 7 20.5t17 8.5h13q-3 54 -3 127q0 145 11 363q8 155 10 249q1 31 1 68q0 72 -3 162q-4 136 -25 254.5t-59 228.5zM113 1473q48 -151 63 -316q12 -138 13 -300q0 -32 -1 -66q3 2 5 2q97 12 182 51q93 43 137 108q31 48 31 104q0 29 -8 60q-28 155 -127 254 q-105 105 -246 105q-33 0 -47 -2h-2zM168 45q201 6 315 53q83 31 131 82q57 57 72 137q12 58 12 109.5t-12 95.5q-26 105 -117 162q-95 59 -247 59q-52 0 -125 -6h-11q-2 -64 -10 -202q-11 -217 -11 -363q0 -72 3 -127z" />
<glyph unicode="C" horiz-adv-x="563" d="M52 419q-1 29 0 56q0 75 5 137q6 82 6 170v41q0 105 1.5 163.5t10.5 150.5t27 168v2q85 241 379 241q11 0 19 -8t8 -20t-8 -20.5t-19 -8.5q-176 0 -239 -78h-2q-71 -71 -95 -196q-20 -210 -20 -437q0 -96 -6 -190q-5 -118 -4 -202q0 -63 2 -107l2 -9q6 -27 9 -39.5 t11 -36.5t16 -38t22 -30t32 -26v-2q37 -24 87.5 -36t85 -14t99.5 -1q11 0 19 -8.5t8 -20.5t-8 -20t-19 -8q-40 -4 -61 -4q-132 0 -219 49q-109 62 -127 184q-20 89 -22 198z" />
<glyph unicode="D" horiz-adv-x="651" d="M37 1534q0 10 8.5 17.5t20.5 7.5q27 0 30 -23q6 14 25 14q46 4 63 4q189 0 297 -114q123 -133 123 -416q0 -52 -4 -109q-2 -53 -2 -167q0 -76 -1 -116t-5.5 -112.5t-16.5 -116.5t-31 -106.5t-51.5 -105t-76.5 -89t-107.5 -81.5t-142.5 -62q-1 0 -3 -1t-3 -1q-38 0 -54 16 q-3 -20 -26 -20q-12 0 -20.5 8t-8.5 19q0 94 -4 274q-1 130 -1 234q0 208 5 311q4 64 4 156q0 147 -10 366q-1 34 -4 105t-4 108zM98 1505q16 -302 16 -507q0 -115 -5 -199q-6 -138 -6 -302q0 -115 3 -243q0 -40 1.5 -121.5t1.5 -122.5l4 4q1 0 2 1t2 1q151 49 235 127 q80 69 121 174q25 60 37.5 141.5t14.5 129t3 149.5q0 115 4 168q6 63 6 123q0 69 -8 133q-22 158 -98 240q-90 96 -252 96q-9 0 -28 -1t-29 -1q0 -2 -2 -2q-15 0 -23 12z" />
<glyph unicode="E" horiz-adv-x="636" d="M74 629q4 55 4 170q0 102 1.5 158.5t12.5 141.5t33 150q77 237 330 336l4 2q43 0 53 -24q7 -14 -10 -31q-1 0 -2 -1t-2 -1q-125 -43 -207 -125q-72 -75 -105 -176q-21 -61 -32 -139.5t-13 -135.5t-2 -149v-6h4q52 -13 176 -17q156 -4 230 -28q2 0 4 -2q17 -15 10 -29 q-10 -23 -55 -23h-4q-55 21 -199 25q-122 4 -166 16q0 -30 -4 -100q-5 -64 -5 -121q0 -276 108 -391q76 -82 204 -82q14 0 50 4q12 0 19 -8t7 -20q0 -11 -7 -19t-17 -8q-40 -4 -56 -4q-154 0 -245 98q-122 130 -122 433q0 50 3 106z" />
<glyph unicode="F" horiz-adv-x="608" d="M66 8q0 185 24 533q11 174 15 251q3 77 7 223q1 44 2 86q0 97 -6 179q-8 118 -26 233q-12 6 -12 25q0 13 7 22t19 9q4 0 232 -6q133 -7 233 -7q10 0 17.5 -9t7.5 -21q0 -13 -7 -22t-18 -9q-118 0 -235 6q-88 6 -183 6q24 -151 29 -337q2 -88 2 -160q0 -80 -3 -139 q-5 -113 -19 -332q-1 -5 -2.5 -17.5t-2.5 -17.5q84 12 273 12q10 0 18 -9.5t8 -21.5q0 -11 -6 -20q-7 -10 -20 -10q-172 0 -277 -15q-16 -262 -16 -432q0 -12 -9.5 -20t-21.5 -8q-13 0 -21.5 8t-8.5 20z" />
<glyph unicode="G" horiz-adv-x="677" d="M74 610q0 414 82 678q36 119 96 193q82 98 188 98q15 0 39 -4q14 0 23 -6q14 -11 14 -25q0 -15 -12 -27t-27 -12h-4q-21 6 -39 6q-91 0 -155 -110q-41 -69 -82 -209q-54 -269 -54 -608q0 -190 29 -287q47 -149 166 -217q28 -14 61 -14q62 0 105 49q50 56 50 134 q0 8 -1 17v2q0 81 -47 144q-42 65 -125 65q-13 0 -22 11t-9 26q0 13 6 21q7 14 25 14q80 0 143 -51q62 -49 84 -127q19 -67 19 -125q0 -107 -64 -185l-2 -2q-67 -67 -151 -67q-82 0 -152 67q-115 97 -158 252q-26 102 -26 299z" />
<glyph unicode="H" horiz-adv-x="888" d="M55 1528q0 13 9.5 22t23.5 9q12 0 21.5 -8.5t9.5 -20.5q18 -166 21 -382q1 -93 1 -175q0 -110 -2 -203q-3 -151 -3 -252q0 -51 1 -90q96 -22 240 -22q23 0 68.5 1t66.5 1q90 4 139 4q51 0 74 -2q0 10 -12 323q-13 279 -13 491q0 176 9 306q0 12 9.5 20.5t22.5 8.5 q14 0 23.5 -9t9.5 -22q-9 -124 -10 -283q0 -40 -1 -75q0 -105 3 -169q3 -85 10 -280q9 -155 12 -315q3 0 9 -1.5t8 -1.5q12 0 20.5 -9.5t8.5 -22.5q0 -14 -8.5 -23.5t-20.5 -9.5h-4q-6 0 -10 2q0 -32 1 -67q0 -120 -6 -263q0 -12 -9 -20t-23 -8q-13 0 -23 8.5t-10 19.5v2 q5 86 5 214q0 55 -1 118q-23 2 -74 2q-47 0 -137 -4q-22 0 -68 -1t-69 -1q-140 0 -240 20q6 -187 21 -348v-2q0 -11 -9.5 -19.5t-21.5 -8.5q-14 0 -23.5 8t-9.5 20q-20 202 -20 539q0 104 2 221q2 87 2 189q0 89 -2 189q-4 214 -21 380z" />
<glyph unicode="I" horiz-adv-x="268" d="M86 1532v4l2 8q1 10 9.5 17.5t19.5 7.5q10 0 19.5 -9t10.5 -26q25 -402 25 -1075v-191v-250q0 -12 -9.5 -21t-21.5 -9q-13 0 -22.5 9t-9.5 21q0 899 -23 1514z" />
<glyph unicode="J" horiz-adv-x="663" d="M0 -80q14 21 37 21q8 0 26 -9q1 0 2.5 -1t2.5 -1q27 -24 53 -24q84 0 145 280q35 168 53 418q3 21 3 33q20 179 24 524v107q0 132 -10 200q-2 2 -2 7q2 4 2 8h-14q-138 0 -240 -15h-6q-13 1 -23 13t-10 26q2 14 12 23t27 8q96 12 254 12h110q97 0 152 2h4q13 -1 23 -14 t8 -27q-4 -26 -37 -26q-78 -4 -137 -4q-9 0 -29 1t-29 1q3 -7 0 -10q14 -75 14 -186q0 -26 -1 -54q-2 -35 -2 -100q0 -53 -2 -82q-7 -299 -27 -502q0 -3 -1 -13t-1 -16q-24 -246 -64 -397q-30 -126 -75 -199q-56 -90 -131 -90q-52 0 -105 39q-1 1 -2 3t-2 3q-13 19 -2 41z " />
<glyph unicode="K" horiz-adv-x="724" d="M61 4q11 267 15 391.5t10 350.5q4 166 4 311q0 53 -1 103q-2 186 -11 368v2q0 12 9.5 20.5t23.5 8.5q13 0 23.5 -9.5t10.5 -21.5q12 -241 12 -463q0 -47 -1 -94q50 34 94 78t85.5 102t67.5 99t68 112q59 106 115 184q0 1 1 2t1 2q12 9 24 9q15 0 25 -13q13 -16 10 -43 q0 -4 -4 -8q-18 -24 -35.5 -51t-42 -67t-35.5 -56q-117 -184 -174 -256q-67 -84 -137 -143q2 2 6 2q12 0 25 -13v-2q184 -247 268 -422q148 -244 160 -452q0 -17 -14 -25q-8 -4 -19 -4q-14 0 -24.5 8.5t-10.5 20.5q-3 65 -26.5 140t-44.5 120t-64 129q-2 5 -9.5 21t-12.5 24 q-32 64 -84.5 144.5t-83 122t-95.5 128.5q-4 4 -4 8q-2 9 7 31q-11 -11 -21 -16q-8 -4 -10 -4h-6q-1 -179 -27 -881q0 -12 -9.5 -19.5t-23.5 -7.5q-15 0 -25 8.5t-10 20.5z" />
<glyph unicode="L" horiz-adv-x="632" d="M53 1546l2 2l2 11q0 9 8 15.5t19 6.5t20 -8.5t9 -26.5q5 -69 8.5 -139t6.5 -147.5t5 -136t3 -146.5t1.5 -135t1 -145.5t0.5 -134v-144.5v-135q0 -146 -2 -220q53 0 78 -2q51 -2 156 -2q85 0 174 7h2q18 0 18 -25q2 -12 -0.5 -20t-6 -10.5t-7.5 -2.5l-2 -2q-76 -8 -191 -8 q-26 0 -75.5 1t-73.5 1q-35 2 -103 2q-1 0 -3 1t-3 1q-24 7 -24 29q0 978 -23 1513z" />
<glyph unicode="M" horiz-adv-x="886" d="M74 1501v2q0 12 8.5 19.5t21.5 7.5t22 -7.5t11 -19.5q17 -173 17 -401v-31q0 -210 -7 -371q-3 -176 -3 -316q0 -227 8 -359q0 -12 -9.5 -19.5t-21.5 -7.5q-14 0 -22.5 7.5t-8.5 19.5q-9 143 -9 346q0 152 5 338q4 143 4 323v74q-1 225 -16 395zM150 1458v4q0 13 11 23 t23 10q10 0 19 -8.5t10 -22.5q23 -110 113 -323q50 -114 90 -234q37 52 72.5 123t52.5 113t53 139q63 173 113 272q4 4 4 5q11 8 22 8q14 0 24.5 -12.5t10.5 -36.5q0 -1 -1 -4.5t-1 -4.5l-2 -2q17 -7 20 -28q24 -115 35 -234q8 -87 8 -184q0 -35 -1 -73q-4 -138 -9.5 -224.5 t-19.5 -243.5q-29 -348 -29 -510q0 -12 -9 -19t-22 -7q-30 0 -30 26q0 174 28 510q17 200 23 312q4 66 4 154q0 61 -2 132q-4 174 -31 316q-35 -75 -80 -195q-37 -98 -59.5 -153t-65 -136t-90.5 -141q-6 -6 -12 -6q-19 0 -27 2q-20 7 -20 26q-34 109 -101 265 q-98 230 -124 362z" />
<glyph unicode="N" horiz-adv-x="854" d="M86 -25q4 249 8 779q5 655 8 778q0 12 8.5 19.5t22.5 7.5q12 0 21.5 -7.5t9.5 -19.5v-12l2 -2q0 19 6 28q8 8 14 8q12 0 17 -14q130 -340 332 -936q67 -202 147 -428q10 135 14 469q0 99 2 150v32q0 101 -4 406q-4 212 -4 323q0 11 6 17t13 6q14 0 26.5 -16.5t12.5 -36.5 q0 -109 6 -232q6 -267 6 -432v-76q-2 -57 -2 -170q0 -365 -29 -579q-3 -23 -31 -23q-25 0 -28 23q-16 44 -48 133t-47 133q-270 764 -413 1145q-2 -95 -3 -203.5t-1.5 -238.5t-1.5 -201q-4 -493 -11 -832q0 -11 -8.5 -18.5t-21.5 -7.5q-12 0 -20.5 7.5t-8.5 18.5v2z" />
<glyph unicode="O" horiz-adv-x="892" d="M63 819q1 197 34 370t87 275q-3 17 4 27l2 2q3 2 8.5 7t8.5 7q2 3 14 15q4 4 11 11.5t10 10.5l2 2q10 7 22 4q76 43 158 43q140 0 219 -114q136 -164 174 -484q10 -120 10 -229q0 -198 -32 -358v-2q-1 -4 -3.5 -11.5t-3.5 -11.5q-18 -55 -27 -81t-30 -76.5t-40 -81 t-50 -64.5t-66 -55h-2q-76 -43 -149 -43q-137 0 -227 155q-65 111 -100 289q-34 174 -34 381v12zM119 754q0 -270 63 -441q18 -51 33 -86.5t38 -75t52.5 -64t65.5 -32.5h2q30 -12 63 -12q78 0 144 66q60 57 96 153v2q60 122 78 257t18 308q-11 218 -46.5 340t-86.5 201l-2 2 q-19 53 -56 92t-83 54q-51 14 -84 14q-80 0 -138 -49q-41 -41 -66.5 -107t-51.5 -168q-39 -250 -39 -454z" />
<glyph unicode="P" horiz-adv-x="679" d="M51 1487v4q0 11 10.5 21t20.5 10t18 -8t9 -21q64 76 149 76q115 0 236 -137q104 -129 120 -246v-2q4 -43 4 -82q0 -208 -108 -301v-2q-121 -92 -303 -92h-33q8 -231 8 -695q0 -12 -8 -19t-20 -7t-20.5 7t-8.5 19q0 468 -8 701q-13 7 -13 26q0 14 11 25q-15 403 -64 723z M117 1442q43 -298 55 -678q20 -2 57 -2q150 0 236 63q54 54 78 135q17 57 17 120q0 26 -3 53v2q0 143 -131 295q-93 81 -164 81q-60 0 -106 -67l-2 -2q-11 -8 -19 -8q-13 0 -18 8z" />
<glyph unicode="Q" horiz-adv-x="823" d="M59 825q-3 55 -3 106q0 320 124 480q-4 14 8 29v2q34 37 54.5 57t61.5 44t79 24q17 0 23 -2q31 -1 59.5 -15t53.5 -40t36.5 -40t30.5 -40q81 -120 113.5 -257t43.5 -309q13 -136 13 -248q0 -65 -4 -122q-22 -217 -103 -359q3 -12 9.5 -37.5t9.5 -38.5q30 -117 37 -141v-6 q0 -12 -13 -18q-5 -5 -14 -5q-28 0 -31 23q-22 63 -39 141q-1 3 -2 8.5t-2 8.5q-1 -2 -3 -5.5t-3 -5.5q-62 -71 -143 -71q-75 0 -151 61t-124 144q-40 61 -65.5 133.5t-36 160t-13.5 147.5t-4 159q0 22 -2 32zM119 817q0 -93 1 -141.5t8.5 -132t22 -138t44 -119.5t71.5 -116 v-2q33 -51 83 -89t100 -38q29 0 53 12q44 26 84 88q-24 97 -66 170q0 2 -1 5.5t-1 5.5q6 40 35 40q10 0 20 -10q0 -2 2 -2q36 -82 50 -131q32 81 49 189q20 136 20 259q0 88 -10 169v26q-13 222 -41 316q-32 97 -66.5 165.5t-87.5 114.5v2q-54 51 -102 51q-10 0 -14 -2h-2 q-43 -3 -82 -45q1 -3 3 -8t3 -8q0 -15 -10 -25h-2q-115 -92 -152 -272q-15 -78 -15 -202q0 -56 3 -122v-10z" />
<glyph unicode="R" horiz-adv-x="647" d="M59 222v38q0 104 9 189q10 113 10 206q0 46 -1 136.5t-1 134.5q-3 137 -3 253q0 149 5 261q-12 6 -17 16q-7 21 11 35q0 2 2 2q107 72 205 72q87 0 149 -62q66 -49 101.5 -135t35.5 -194q0 -233 -112 -375q-92 -103 -242 -103h-4q0 -2 2 -2q32 -15 62 -42.5t58.5 -67.5 t44.5 -66.5t42 -71.5q12 -20 16 -28q121 -240 158 -381v-4q0 -11 -10 -21q-8 -8 -21 -8q-10 0 -18 7t-9 20q-12 55 -38 122.5t-47.5 111.5t-57.5 114q-71 118 -115 174q-46 61 -104 88q-2 0 -6 4q-12 15 -6 31q8 17 35 20l-60 6v-22q0 -69 -8 -209q-10 -91 -9 -204v-31 q2 -132 29 -234v-4q0 -11 -10 -21q-8 -8 -20 -8q-10 0 -18 7t-9 20q-27 98 -29 226zM131 940q0 -30 1 -89t1 -89q36 -8 78 -8q140 0 217 100q80 127 80 320q-11 96 -35.5 168t-79.5 124q-47 41 -106 41q-73 0 -154 -53q-4 -83 -4 -252q0 -112 2 -262z" />
<glyph unicode="S" horiz-adv-x="577" d="M51 55q10 23 47 23q6 0 8 -2q37 -19 89.5 -33t97.5 -14q62 6 96 51q40 52 40 151q0 75 -23 177q-14 69 -41.5 142.5t-49 118t-63.5 126.5q-3 6 -17.5 34t-21.5 45q-3 6 -12.5 26.5t-14.5 31.5q-70 149 -90 215q-24 77 -24 146q0 44 10 85q12 92 94 140q62 36 168 36 q76 0 156 -18q11 0 20 -6q10 -7 10 -21q0 -12 -10 -22t-22 -10h-2q-14 3 -50 8q-75 16 -131 16q-40 0 -71 -8q-66 -21 -94 -78q-19 -41 -19 -96q0 -36 8 -78q12 -73 49 -174q18 -42 93 -184q96 -176 131 -285q27 -74 42.5 -127t29.5 -121q13 -61 12 -117v-11 q-2 -62 -19 -118q0 -2 -2 -2q-53 -127 -205 -127q-98 0 -204 48l-5 2q-17 13 -10 30z" />
<glyph unicode="T" horiz-adv-x="802" d="M51 1495q0 12 9 21.5t20 9.5h4q62 -8 98 -8q76 0 224 24q175 23 229 23q49 0 72 -4q9 0 15.5 -8t6.5 -19q0 -12 -7 -20.5t-17 -8.5h-3q-20 4 -67 4q-60 0 -223 -22q-158 -25 -230 -25q-38 0 -104 8q-10 0 -17 7q-10 7 -10 18zM330 6q0 988 22 1448q0 9 8.5 16t20.5 7 q11 0 19 -7.5t8 -17.5q-23 -479 -23 -1446q0 -10 -8 -17t-19 -7q-12 0 -20 7t-8 17z" />
<glyph unicode="U" horiz-adv-x="960" d="M76 808q-1 46 -1 89q0 161 9 293q10 182 10 328q0 11 8.5 18.5t20.5 7.5q13 0 22 -7.5t9 -18.5q0 -32 -11 -324q-9 -135 -10 -301q0 -30 1 -61q2 -203 32 -361v-2q23 -150 59 -238q52 -135 146 -172q41 -20 88 -20q87 0 164 74q65 65 110 168q53 149 70.5 310.5 t17.5 360.5q0 126 -1.5 196.5t-10.5 180t-27 199.5v2q0 13 10 22t23 9q10 0 18.5 -7.5t8.5 -21.5q43 -202 43 -485q0 -106 -6 -222v-14q-12 -233 -37 -365q-40 -210 -133 -337q-47 -62 -114.5 -97t-137.5 -35q-79 0 -138 39q-88 55 -147 183q-38 86 -63 227q-30 168 -33 382 z" />
<glyph unicode="V" horiz-adv-x="890" d="M59 1526q13 26 33 26q14 0 25 -16q9 -15 18.5 -34.5t15.5 -33.5t16.5 -43.5t13.5 -39t15 -45.5t13 -40q21 -65 22 -69q17 -50 21 -62q59 -176 76 -256q1 -3 26 -120q41 -198 47 -238q19 -114 23 -141q23 -185 53 -293q87 286 168 688q67 342 131 786q2 9 10.5 16t20.5 7 t22 -10q8 -8 5 -19q-28 -228 -65 -464t-108 -560t-151 -563q-6 -16 -23 -16q-11 0 -22 8.5t-12 21.5q-27 67 -48.5 152.5t-32 145.5t-28.5 171q-30 174 -80 385q-45 190 -86 304q-17 47 -33 106q-3 9 -13 42t-15 47t-14.5 39.5t-19 45t-20.5 37.5q-14 14 -4 35z" />
<glyph unicode="W" horiz-adv-x="1136" d="M86 1491q-4 4 0 8q4 25 29 25q14 0 24 -13q2 -4 6 -16q35 -135 65.5 -308t44.5 -275t40 -312q53 -407 76 -543q47 102 112 324q40 129 43 137q0 10 8 16.5t19 6.5q13 0 22 -8t9 -19q7 -90 13.5 -145t30 -137t60.5 -134q29 93 55.5 211.5t38.5 188.5t35 215 q22 142 36.5 221.5t41 202t62 224.5t81.5 195q4 7 6 7q10 10 27 10q13 0 21 -8q7 -11 4 -23v-4q-46 -92 -81 -191.5t-61.5 -223t-40 -197.5t-36.5 -221q-26 -160 -40 -237t-45 -207.5t-67 -231.5q-8 -23 -33 -23h-12l-12 6q-92 115 -127 353q-73 -241 -119 -334l-4 -4 q-14 -17 -29 -17q-6 0 -10 4q0 -4 1 -10.5t1 -9.5v-2q0 -13 -10 -23q-8 -8 -21 -8q-12 0 -20 8q-6 12 -6 23q-37 201 -88 614q-26 206 -40 309t-44.5 272.5t-65.5 303.5z" />
<glyph unicode="X" horiz-adv-x="940" d="M82 1522q4 11 18.5 18.5t26.5 7.5q2 0 10 -4q185 -173 350 -487q14 24 41 73t41 74q167 307 207 391l4 4q9 11 23 11q13 0 23 -12.5t10 -38.5q0 -1 -1 -4.5t-1 -4.5q-68 -130 -207 -379q-52 -87 -103 -182q14 -27 42.5 -86.5t37.5 -77.5q167 -401 285 -798q0 -1 1 -2 t1 -2q0 -12 -9.5 -19.5t-21.5 -7.5t-20.5 6.5t-8.5 15.5q-130 436 -299 793v2q-8 18 -24 53t-23 52q-139 -258 -227.5 -487t-116.5 -470q0 -10 -8 -17t-20 -7t-20.5 7t-8.5 19v2q19 175 79 364.5t125.5 333t162.5 324.5q-169 336 -363 504q-15 15 -6 31z" />
<glyph unicode="Y" horiz-adv-x="741" d="M59 1481q-10 19 0 35q9 18 31 18t25 -18q80 -271 190 -713q24 -102 66 -258q45 104 83.5 243t57 230t53.5 274q26 148 62 318q6 18 22 18q13 0 25 -12q13 -17 10 -39q-19 -97 -45 -246q-30 -164 -45 -240.5t-46 -209t-68.5 -238.5t-86.5 -209q0 -138 2 -201v-213 q0 -10 -8 -17t-20 -7q-14 0 -22.5 7t-8.5 17v422q0 4 -2 4v3q-42 166 -107 391q-9 34 -41.5 151.5t-47.5 172.5t-38.5 148t-40.5 169z" />
<glyph unicode="Z" horiz-adv-x="950" d="M61 1456q-7 25 11 37q0 2 4 2q35 17 81.5 28.5t73 15.5t88.5 11l15 2h2l74 -6q78 -8 116 -8q56 0 103 12h2q13 2 25 2q50 0 79 -41q22 -38 22 -85q0 -51 -20 -95v-2q-19 -39 -65 -117q-10 -19 -28 -51t-23 -41q-105 -256 -140 -385l-2 -2q-72 -186 -194 -592 q-20 -57 -33 -104q56 4 84 8q216 18 295 18q129 0 231 -24q31 -3 31 -29q0 -13 -10.5 -23t-22.5 -10h-4q-108 27 -238 27q-73 0 -280 -18q-20 -2 -63 -6.5t-64 -6.5h-2q-12 0 -21.5 8.5t-9.5 22.5v4q75 272 205 656q89 304 229 563q80 123 84 194q0 17 -8.5 42.5t-17.5 25.5 q-4 0 -6 -2h-19q-23 0 -35 -6q-4 -4 -8 -4q-18 -2 -57 -2q-55 0 -111 6q-31 5 -84 8q-3 0 -8 -1t-8 -1q-136 -15 -185 -34q-18 -7 -32 -15q-2 0 -2 -2q-6 -2 -19 -2q-26 0 -35 22z" />
<glyph unicode="[" horiz-adv-x="278" d="M79.5 955.5q0.5 223.5 2.5 333.5t8 345q0 17 8 23q6 4 25 4q67 0 137 17t121 46h2q14 7 25 7q27 0 34 -23q7 -22 -12 -35l-2 -2q-139 -57 -274 -67q-7 -280 -9 -432t1 -395.5t21 -452t52 -408.5h23q69 0 204 -43q1 -1 3.5 -2t3.5 -2q16 -14 10 -31q-9 -22 -53 -22 q-5 0 -7 2h-4q-105 41 -159 41q-17 0 -45 -4h-2q-13 0 -23.5 7.5t-11.5 20.5q-29 167 -46.5 360.5t-25 341t-7 371z" />
<glyph unicode="\" horiz-adv-x="702" d="M96 1624q0 2 2 2q4 22 21 29q19 12 33 -13q0 -4 2 -6q24 -201 76 -438t96.5 -395.5t122.5 -421.5q61 -201 124 -434q13 -24 -8 -37q-12 -7 -25.5 -4t-19.5 14v4q-49 176 -123 422q-64 214 -96 325t-80.5 295t-77.5 342t-45 312q-2 2 -2 4z" />
<glyph unicode="]" horiz-adv-x="342" d="M-141 1692q9 22 53 22q4 0 6 -2h4q3 -1 17.5 -6.5t18 -7t16.5 -6t18.5 -6t16.5 -5t18.5 -4.5t17.5 -3t19 -2.5t18 -0.5q17 0 45 4h2q13 0 23.5 -7.5t11.5 -20.5q67 -401 76 -871q5 -265 -11 -880q0 -17 -8 -23q-6 -4 -24 -4q-143 0 -258 -64h-2q-12 -6 -23 -6 q-30 0 -37 23q-7 22 12 35q0 2 5 2q136 57 272 67q8 265 10 428t-1 399t-21 447.5t-52 413.5h-22q-70 0 -205 43q-1 1 -3 2t-3 2q-10 9 -10 31z" />
<glyph unicode="^" horiz-adv-x="387" d="M37 1366q0 8 2 12q46 68 119 152v2q4 10 14 14.5t18 1.5q40 -17 76 -67l2 -4q5 -5 15.5 -14.5t15.5 -14.5l13.5 -13.5t18 -17.5t15.5 -16q6 -6 6 -15q0 -8 -4 -16q-10 -14 -22 -14q-14 0 -21 10l-4 4q-8 13 -25 27q-25 25 -32 37q-23 23 -27 28q-2 2 -10.5 12t-13.5 13 q-2 -2 -7 -8t-8 -9l-10 -10q-3 -4 -25 -26q-11 -16 -29.5 -41t-25.5 -35q0 -6 -4 -10q-6 -9 -21 -9q-10 0 -18 8t-8 19z" />
<glyph unicode="_" horiz-adv-x="841" d="M16 11.5q0 15.5 7 15.5q64 0 189.5 -2t204 -3t187 0.5t199.5 6.5q3 0 6 -7t1.5 -14t-7.5 -8q-91 -6 -200.5 -7.5t-185.5 -1t-205 2.5t-189 2q-7 0 -7 15.5z" />
<glyph unicode="`" horiz-adv-x="393" d="M90 1526q7 18 37 18q4 0 6 -2q50 -24 129 -100q8 -7 25 -23t26 -24q13 -10 9 -29q-12 -23 -31 -23q-10 0 -19 9l-28 28q-85 89 -144 113l-4 4q-13 13 -6 29z" />
<glyph unicode="a" horiz-adv-x="593" d="M49 942q-10 21 4 39l4 2q40 22 64.5 34t60.5 23t68 11q65 0 123 -43q45 -29 77 -83t43.5 -94t16.5 -79q14 -57 21 -120.5t7 -119t-1 -119.5v-370q0 -3 -5 -13q0 -14 -6 -20q-7 -10 -18 -10q-182 0 -272 34q-143 55 -170 211v2q-5 37 -5 73q0 147 84 263q35 71 138 96h2 q15 3 32 3q9 0 54 -5q16 -2 47 -2q32 0 49 11v4q-27 187 -98 264h-2q-53 59 -115 59q-67 0 -152 -61v-2q-12 -6 -22 -6q-22 0 -29 18zM119 219q23 -116 137 -156q71 -26 225 -26v311q1 48 1 89q0 103 -7 165q-8 -2 -29 -2q-18 0 -28 2h-27q-50 0 -76 -2t-61.5 -15t-58.5 -40 q-43 -63 -63 -151q-15 -63 -15 -126q0 -24 2 -49z" />
<glyph unicode="b" horiz-adv-x="612" d="M61 631q0 17 9 26q4 4 4 5q-1 159 -1 307q0 295 5 544q0 11 9 18t22 7q12 0 20 -7t8 -18q-7 -240 -7 -496q0 -163 3 -333q88 31 154 31q93 0 151 -58q67 -58 97 -149q24 -73 24 -166q0 -32 -4 -65.5t-15.5 -80t-38 -89t-65.5 -70.5q-66 -57 -149 -57q-73 0 -150 38v-8 q0 -10 -8 -17t-20 -7q-14 0 -22.5 7t-8.5 17q0 334 -2 500q0 69 -2 104q-9 6 -13 17zM133 510q4 -282 4 -430q4 2 10 2q7 0 19 -4v-2q71 -41 133 -41q66 0 117 51q86 98 86 268q0 175 -96 256q-51 45 -130 45q-73 0 -143 -37v-108z" />
<glyph unicode="c" horiz-adv-x="649" d="M55 512q0 189 76 319q88 148 238 148q51 0 110 -18q23 -3 23 -33q0 -14 -7.5 -22.5t-19.5 -8.5h-4q-44 16 -94 16q-125 0 -197 -125q-67 -113 -67 -290q3 -179 73 -295q81 -144 226 -144q70 0 143 33q2 2 6 2q21 0 27 -16q10 -23 -17 -43l-2 -2q-82 -39 -163 -39 q-164 0 -265 166q-86 144 -86 352z" />
<glyph unicode="d" horiz-adv-x="663" d="M66 252q0 120 22.5 209.5t89.5 154.5q60 68 144 97.5t192 40.5q6 0 8 -2v32q-8 496 -8 756q0 10 8.5 17.5t20.5 7.5t20 -7t8 -18q0 -198 9 -756q6 -726 6 -731q10 -10 10 -24q0 -12 -7.5 -20.5t-17.5 -8.5q-28 0 -102 -8q-111 -6 -113 -6q-87 0 -143 26q-79 29 -119 101 q-28 58 -28 139zM123 240q12 -88 45 -129q40 -52 119 -52h2q36 -8 92 -8q30 0 92 4q9 0 27.5 1t27.5 1q0 325 -6 641h-6q-105 -15 -181.5 -42.5t-119.5 -82.5q0 -2 -2 -2q-51 -61 -75 -148q-17 -63 -17 -131q0 -25 2 -52z" />
<glyph unicode="e" horiz-adv-x="694" d="M66 481q0 12 6 21q3 8 14 12q17 188 117 305q68 65 158 100t190 35q27 0 39 -2q12 1 20.5 -7.5t10.5 -22.5q0 -14 -7.5 -24t-19.5 -11h-2q-12 2 -37 2q-95 0 -176 -35q-84 -37 -150 -109q-61 -102 -73 -233q153 -10 286 -10q54 0 140 4h2q25 0 28 -31q0 -14 -7 -24 t-19 -11q-98 -4 -162 -4q-131 0 -272 8q-1 -10 -1 -25q0 -30 3 -77q10 -185 143 -244q85 -30 293 -55h6q28 0 33 -27q0 -13 -10 -25.5t-23 -13.5h-4q-6 1 -17 2.5t-16 2.5q-74 7 -120.5 13t-112.5 24.5t-113 46.5q-79 49 -113 149q-18 62 -18 131q0 23 2 47q-2 18 -2 58 q-16 6 -16 30z" />
<glyph unicode="f" horiz-adv-x="561" d="M86 612q-1 88 -1 158q0 140 5 209q0 221 64 371q41 96 102 145q73 61 174 61q22 0 76 -8q11 0 20 -6q11 -11 11 -20q0 -12 -10.5 -22.5t-22.5 -10.5h-2q-34 6 -66 6q-99 0 -162 -63q-56 -56 -90 -160q-49 -148 -49 -400q0 -103 12 -311q8 4 15 4q58 0 85.5 -0.5t72 -6.5 t77.5 -19q9 -2 16 -10.5t7 -20.5t-7.5 -20.5t-19.5 -8.5h-4q-38 13 -79 19t-68 7t-80 1q-6 0 -10 2q6 -70 12 -135q0 -61 2 -90q2 -36 2 -78v-55q-3 -76 -18 -130q0 -10 -7 -20t-20 -10q-12 0 -22.5 10.5t-10.5 22.5v2q13 63 14 142q1 22 1 41q0 51 -3 86q-4 49 -12 132v2 q0 66 -4 184z" />
<glyph unicode="g" horiz-adv-x="772" d="M100 427q3 71 15 130q7 58 27 117.5t52 115t80.5 90.5t104.5 35q35 0 59 -8q18 -3 25 -16q56 -25 80 -82q74 -107 86 -252q16 -5 24 -25q9 -17 -6 -32q-4 -4 -8 -4q-2 -4 -2 -19q0 -8 -4 -12q0 -25 -2 -37q31 -224 31 -444q0 -198 -25 -392q-9 -113 -20.5 -155.5 t-55.5 -130.5q-2 -4 -6.5 -14.5t-7.5 -16.5q-90 -284 -219 -356q-42 -25 -76 -25q-48 0 -76 41q-48 63 -57 205q-1 27 -1 52q0 83 15 142q13 72 35 134.5t61.5 128t61 97.5t76.5 107q140 186 200 332q0 1 1 2t1 2q10 13 23 13q3 0 6 -3q-1 8 -1.5 23.5t-1.5 28.5t-3 24 q-32 -98 -88 -160q-70 -79 -152 -79q-52 0 -110 39q-57 35 -92 104t-44 149q-6 62 -6 118v33zM156 475q-3 -41 -3 -78q0 -90 17 -160q25 -98 66 -143q42 -45 104 -45q8 0 12 2h2q108 0 166 135q45 109 45 265v10q-2 14 -7 51.5t-7 58.5l-2 2q0 11 8 19q-34 242 -162 254 q-13 0 -18 8q-97 0 -160 -129q-51 -109 -61 -248v-2zM178 -780q-4 -37 -4 -73q0 -63 10 -120q36 -80 68 -80q35 11 70 39t49 60l2 2q120 180 166 325q44 140 53 361v2q12 97 12 222q0 47 -2 97q-54 -102 -162 -243q-46 -61 -67 -91t-56 -85.5t-59 -111.5t-43 -122v-2 q-29 -76 -37 -180z" />
<glyph unicode="h" horiz-adv-x="663" d="M70 1534v4q0 12 10 21.5t22 9.5q25 0 25 -31q59 -353 60 -856q0 -32 -1 -64q25 39 43 63t49 48t64 29h4q87 0 150 -133l2 -2q50 -133 71 -293q15 -106 15 -203q0 -51 -4 -100q0 -9 -8.5 -16t-20.5 -7t-20.5 7.5t-8.5 17.5q4 48 4 97q0 188 -57 404q-9 18 -18 39 q-45 120 -95 129q-1 0 -3.5 1t-4.5 1q-35 0 -75.5 -52t-75.5 -144q-1 -1 -2 -3t-2 -3t-3.5 -2t-3.5 -2q0 -113 -2 -168q0 -51 -1 -155t-1 -155q0 -12 -8 -19t-20 -7t-20.5 7t-8.5 19q0 49 1 149.5t1 149.5q1 214 1 403q0 7 1 13q0 183 -14 395q-14 219 -45 408z" />
<glyph unicode="i" horiz-adv-x="364" d="M96 219q-3 28 -3 61q0 50 7 113q0 57 11 162q10 147 10 186q0 7 1 23t1 24q2 31 2 57q0 81 -21 111l-2 2q-12 28 0 52q13 20 37 20q17 0 29 -12l2 -2q27 -42 27 -116q0 -20 -2 -42q0 -7 -1 -20t-1 -19q0 -57 -11 -143q-10 -112 -10 -139q0 -31 -6 -84q-8 -94 -7 -161 q0 -57 5 -95q18 -135 110 -144q12 0 21.5 -10t9.5 -25q0 -14 -10 -24t-23 -10h-2q-74 9 -116 65q-49 57 -58 170zM102 1313q-14 30 -14 61.5t14 65.5l4 4q12 12 27 12q26 0 37 -37q2 -2 2 -28q0 -7 -2 -9q2 -2 2 -8q2 -2 10 -6q21 -14 25 -18q4 -8 4 -13q0 -19 -23 -28 q-16 -4 -28 -4q0 -2 -43 -2q-12 0 -15 10z" />
<glyph unicode="j" horiz-adv-x="385" d="M-129 -254q0 26 11 38.5t26 12.5q14 0 22 -8l7 -6q24 -57 63 -113q46 -69 78 -69q20 0 39 47v2q63 148 63 364v2q12 100 14 226q2 80 2 139v65q-2 78 -8 230q-8 218 -8 330q0 10 9.5 17t23.5 7q15 0 24 -6.5t9 -17.5q0 -127 8 -373q6 -172 8 -261v-74q0 -69 -2 -160 q-2 -145 -14 -261q-1 -6 -4 -25t-4 -30q-6 -46 -11.5 -74t-18 -70t-34.5 -72t-53 -48q-29 -19 -55 -19q-25 0 -49 13.5t-48.5 44.5t-34.5 46t-34 54q-23 37 -25 39q-4 8 -4 10zM131 1225q0 42 35 98l4 4q8 8 25 8q25 0 34 -18q11 -16 -2 -39q-3 -6 -12 -6l-6 -12 q-3 -8 -10 -19h16q11 0 19 -8.5t8 -20.5t-8 -20t-19 -8q-46 0 -78 28q-6 6 -6 13z" />
<glyph unicode="k" horiz-adv-x="624" d="M82 1522v2q0 11 9 18.5t22 7.5q12 0 20 -7.5t8 -18.5q17 -185 29 -527q2 -47 6 -142t6 -142q0 -164 2 -246q136 245 262 559q1 2 3 4q17 17 30 17q10 0 17.5 -8t7.5 -19v-6q-88 -235 -217 -492q8 0 16 -8q44 -39 80.5 -100t53 -102t46.5 -124q45 -129 74 -182q2 -2 2 -6 q0 -19 -6 -31q-11 -18 -27 -18q-10 0 -20 12l-2 2q-29 57 -70 182q-27 83 -43.5 126t-52.5 99.5t-82 90.5q-3 -8 -47 -92q-2 -2 -2 -4q-9 -9 -19 -9q3 -52 9 -106q0 -109 14 -150v-4q0 -17 1 -30t2 -18.5t1 -6.5q4 -2 6 -4q13 -16 6 -33q-9 -22 -45 -22q-4 0 -12 4 q-23 28 -29 108q-4 43 -4 99q-14 156 -14 477q-6 132 -6 268q0 7 -1 56.5t-1.5 61t-1.5 56.5t-1.5 61t-2.5 56t-3.5 60.5t-4 56t-5 60.5t-6.5 55.5t-8 58.5z" />
<glyph unicode="l" horiz-adv-x="501" d="M80 74q-9 19 0 41q2 0 2 2q58 69 102 219q-48 205 -63 414q-10 124 -10.5 248t10.5 249q21 224 110 348q5 9 13 9h28q1 0 11 -5q23 -18 40.5 -46.5t28.5 -66t16 -64t11 -66.5q4 -20 4 -27h2q4 -52 4 -118q0 -138 -18 -339h-2q-18 -111 -30 -175t-33.5 -150.5 t-47.5 -155.5q-6 -27 -12 -51q2 -8 6 -25.5t6 -25.5q58 -216 148 -309q17 -13 6 -31q-12 -27 -35 -27q-11 0 -21 10v2q-13 18 -25 36.5t-24 42.5l-19.5 39t-20 45t-16.5 40.5t-17.5 46t-16.5 41.5q0 1 -1 3.5t-1 4.5q-33 -94 -82 -161q0 -2 -2 -2q-11 -11 -22 -11 q-18 0 -29 15zM178 768q12 -147 43 -303q67 248 78 371q31 180 31 328q0 55 -4 106v2q0 176 -62 250q-65 -109 -86 -305q-10 -114 -10 -226t10 -223z" />
<glyph unicode="m" horiz-adv-x="1126" d="M70 1010v2q0 13 10 24t22 11q27 0 27 -33q18 -125 23 -213q45 124 124 188q47 41 99 41q86 0 143 -96q2 -4 16.5 -37t20.5 -51q90 207 184 207q51 0 105 -66q55 -75 98 -180q31 -80 57 -199q33 -157 52 -415q5 -64 12 -146l2 -2q0 -12 -9.5 -20.5t-21.5 -8.5 q-13 0 -21.5 8.5t-8.5 20.5q-10 75 -17 188q-8 105 -14 164t-21 148.5t-40.5 163t-63.5 139.5l-2 4q-13 48 -45 92q-35 53 -66 53h-6q-39 -23 -72 -96q-32 -71 -61 -153q-1 -4 -4 -11.5t-4 -11.5q23 -121 26 -299q11 -127 11 -252q0 -136 -13 -268q0 -12 -8.5 -19.5 t-21.5 -7.5q-14 0 -22.5 7.5t-8.5 19.5v2q9 151 9 289q0 218 -23 403q0 -2 -1 -4.5t-1 -3.5t-1.5 -2t-1.5 -2q-13 -13 -24 -13q-35 0 -35 56v6q9 18 27 70q2 6 6 17t6 17q-29 110 -67 169t-78 59q-30 0 -70 -37q-56 -62 -87.5 -155t-31.5 -197q0 -16 -14 -23q1 -55 1 -116.5 t-0.5 -136t-0.5 -114.5v-196q0 -12 -9.5 -20.5t-23.5 -8.5q-13 0 -22 8.5t-9 20.5v211q3 96 3 202q-1 97 -3 201q-6 220 -30 402z" />
<glyph unicode="n" horiz-adv-x="872" d="M70 999q-12 28 0 45q10 17 30 17q14 0 27 -10q0 -2 2 -2q82 -113 109 -277q8 11 20 34t16 30q69 130 134 182q37 29 73 29q31 0 65.5 -18.5t52 -34t46.5 -44.5q0 -2 2 -2q35 -47 61 -97.5t41 -109.5t24 -105.5t13 -117t4.5 -109t0.5 -116.5q0 -201 8 -270 q0 -12 -9.5 -20.5t-21.5 -8.5q-13 0 -23 7.5t-10 18.5q-10 73 -10 283v71q0 66 -1 112q-2 68 -19 163.5t-52 165.5q-1 1 -6.5 10.5t-9.5 14.5q-17 27 -27 42t-28.5 38t-39.5 36t-44 17h-2q-8 4 -21 4q-23 0 -38 -18.5t-21 -40.5l-4 -5q-43 -54 -127 -200q-3 -6 -33 -60 q2 -34 2 -104.5t-2 -177.5q-4 -86 -4 -157q0 -155 18 -241v-2q0 -15 -12 -24q-10 -10 -25 -10q-28 0 -28 32q-15 83 -19 189q-2 50 -2 95q0 52 2 99q2 43 2 137q0 177 -14 267q-23 151 -98 241z" />
<glyph unicode="o" horiz-adv-x="819" d="M94 428q0 170 70 320q90 194 256 194q12 0 20.5 -9.5t8.5 -21.5q0 -9 -7 -20q-6 -12 -22 -12q-70 0 -125 -52q-45 -42 -82 -131q-57 -141 -57 -315q0 -48 1 -73t7 -66t21.5 -73t41.5 -58q86 -62 142 -62q33 0 59 17h2q75 33 140.5 127.5t99.5 216.5q27 97 28 185 q0 23 -2 46q-4 61 -22 108.5t-45.5 76t-56 45t-60.5 24.5q-11 0 -20 6q-11 11 -11 21q0 13 10.5 23.5t22.5 10.5q15 0 31 -8q9 -6 16 -6q6 0 8 -2q70 -35 114 -96q45 -62 59 -134q12 -62 12 -123v-21q-2 -72 -21 -142l-2 -2q-43 -155 -110 -266q-100 -154 -230 -166 q-12 -2 -35 -2q-92 0 -159 73q-59 66 -85 170q-19 79 -20 152q0 23 2 45z" />
<glyph unicode="p" horiz-adv-x="985" d="M117 303q-9 52 -9 102q0 60 13 117q19 99 63 166q53 81 121 119q20 10 33 10q29 0 39 -24q7 -20 -12 -33l-3 -2q-135 -67 -172 -230q-11 -55 -11 -111q0 -76 20 -155q51 -158 170 -196q35 -7 61 -7q134 0 227 74q53 46 87 106t46 123q11 57 11 113v9q-1 60 -15 116 q-21 98 -89 168t-179 70q-58 0 -119 -21h-8q-12 0 -21.5 8.5t-9.5 20.5q-2 9 5.5 18.5t19.5 12.5q38 18 119 26h16q89 0 156 -37q61 -34 104 -92q69 -95 82 -221q3 -33 3 -65q0 -119 -36 -212q-62 -166 -215 -227q-99 -51 -194 -51q-57 0 -103 18q7 -24 17 -98q6 -63 6 -160 q0 -78 -4 -178q0 -11 -1 -35t-1 -37q-1 -12 -4.5 -54.5t-5.5 -61.5q-12 -171 -48 -400q0 -10 -6 -22q-10 -10 -24 -10t-27 7.5t-14 18.5v6q28 169 33.5 240t5.5 242v4q30 135 30 265q0 58 -6 114q0 5 -1 16t-1 16q-2 38 -4 56.5t-9 48.5t-22 50t-38 34q-15 8 -15 20 q-3 14 8 25q-50 70 -69 180z" />
<glyph unicode="q" horiz-adv-x="790" d="M99 548q25 179 120 314q1 1 3 4t3 4q1 0 2 1t2 1q43 41 111 64q2 2 22 2q116 0 201 -117q48 -64 107 -205q40 -134 40 -249q0 -52 -8 -101q-1 -49 -12 -463q-14 -429 -14 -608q0 -10 -8.5 -17t-22.5 -7q-12 0 -21.5 7t-9.5 17q0 211 13 610q2 51 5 153.5t5 150.5 q-10 -12 -33 -35q-78 -72 -180 -72q-95 0 -178 61q-84 62 -115 156q-40 104 -40 223q0 51 8 106zM162 545q-10 -60 -10 -113q0 -104 38 -184v-4q22 -85 84 -129q57 -45 150 -45q127 0 186 100q22 49 29 86v156q0 10 6 16q-12 117 -65 254q-37 76 -93.5 131t-111.5 55 q-51 0 -94 -49v-2q-91 -100 -119 -272z" />
<glyph unicode="r" horiz-adv-x="724" d="M90 797q-11 21 0 43q10 16 31 16q16 0 26 -10l5 -4q45 -89 67 -211q112 381 410 411h2q12 0 20 -9t8 -23q0 -10 -6 -19q-9 -12 -22 -12q-139 -9 -238 -141q-82 -112 -110 -263q-42 -172 -56 -335v-2q-8 -144 -8 -220q0 -11 -10 -18.5t-23 -7.5t-21.5 7.5t-8.5 18.5 q0 207 14 353q0 9 1 25t1 22q0 240 -80 379h-2z" />
<glyph unicode="s" horiz-adv-x="507" d="M68 10q0 14 7 23.5t19 9.5h19q132 0 182 96q27 57 27 129q0 18 -2 37q-8 95 -41 185.5t-78 150.5q-27 40 -44 74t-31 79q-9 29 -8 58q0 16 2 32q8 46 38 87v2q15 20 35.5 38.5t57 37t73.5 18.5q61 0 110 -49q12 -12 6 -35q-14 -27 -39 -27q-11 0 -20 9q-2 0 -2 2 q-27 34 -66 34q-46 0 -86.5 -45.5t-40.5 -97.5q0 -93 72 -182v-2q103 -155 121 -320q8 -52 8 -96q0 -22 -2 -41q-13 -81 -53 -141q-18 -31 -45.5 -51t-62 -29.5t-64 -12.5t-66.5 -3q-26 0 -26 30z" />
<glyph unicode="t" horiz-adv-x="630" d="M80 958q0 13 10 23q9 6 23 6q79 19 176 49q10 101 10 103v2q2 15 7 43t7 43q1 5 4.5 25.5t4.5 27t3.5 25t3.5 27l3 25.5t2.5 27t1 25t0.5 26.5t-1 24.5t-3 25v2q0 13 9.5 22t23.5 9t23 -9t9 -22q0 -104 -30 -273q0 -5 -5 -30l-4 -49q-4 -28 -8 -80q67 22 162 47h4 q12 0 22.5 -11t10.5 -24t-10 -23q-9 -6 -23 -6q-23 -6 -174 -49q-4 -42 -29 -287q0 -9 -4 -71q-6 -134 -6 -232q0 -105 7 -167q14 -122 50 -160q12 -15 33 -15q13 0 31 9q2 2 8 2q43 0 53 -27q8 -16 -12 -33l-2 -2q-37 -18 -70 -18q-48 0 -86 41q-66 78 -75 288q-3 46 -3 90 q0 87 11 164q0 98 31 379q0 3 1 10t1 11q-111 -34 -164 -47h-2q-14 0 -24.5 10.5t-10.5 23.5z" />
<glyph unicode="u" horiz-adv-x="888" d="M84 430v31q0 71 7 147q9 94 16.5 153.5t23.5 162.5q0 12 9.5 20t21.5 8q13 0 22 -8t9 -20v-2q-6 -76 -19 -164q-11 -93 -16 -143q-4 -51 -4 -129q0 -3 -1 -6q0 -74 11 -134v-2q0 -199 98 -266q54 -23 94 -23q55 0 88 33q86 86 138 238v34q0 18 18 25q28 99 43 180 q32 296 62 422q0 17 8.5 25t19.5 8q13 0 24 -11.5t11 -23.5v-4q-17 -64 -45 -252q-27 -194 -47 -264l-2 -12q-4 -18 -14 -57.5t-15 -61.5q5 -116 29 -174q38 -80 125 -80q12 0 19 -9.5t7 -23.5q0 -33 -26 -33q-99 0 -154 76q-29 39 -45 105q-62 -139 -151 -181 q-52 -20 -91 -20q-97 0 -172 90q-62 71 -88 178v2q-12 82 -14 166z" />
<glyph unicode="v" horiz-adv-x="712" d="M82 991v2q0 12 10 22.5t23 10.5q11 0 18.5 -8.5t7.5 -22.5q30 -159 82 -485q26 -179 62 -379q55 139 125 381q101 354 192 535q2 2 2 4q10 12 25 12t25 -15t10 -38q0 -4 -5 -9q-45 -79 -85 -181.5t-62 -176t-55 -192.5q-86 -303 -154 -453q-3 -10 -14 -10t-19 4 q-24 7 -24 26q-33 173 -82 486q-9 55 -25 153t-30 180t-27 154z" />
<glyph unicode="w" horiz-adv-x="962" d="M59 1004v6q0 28 27 28q17 0 35 -18q2 0 2 -4q140 -357 192 -830q26 130 58 365q3 17 13.5 88t15 99.5t14 84.5t19 100.5t20.5 88.5q3 26 32 26q12 0 21.5 -8t9.5 -20q0 -99 15 -212t31.5 -189.5t47.5 -207.5q6 -28 19.5 -84.5t19.5 -83.5q1 8 3 25t3 25q15 132 24.5 201 t29.5 181.5t50.5 205.5t72.5 180q0 4 2 4q10 12 24 12q17 0 27 -15.5t10 -41.5q0 -4 -2 -6q-54 -105 -90.5 -244t-49 -227t-32.5 -261q-17 -143 -33 -252q0 -10 -9.5 -17t-23.5 -7t-23 7t-9 17q-20 127 -72 345q-65 278 -82 411q-29 -190 -35 -235q-17 -124 -27 -193.5 t-31.5 -174.5t-47.5 -187q-2 -12 -11 -19.5t-22 -7.5q-14 0 -23.5 8.5t-9.5 20.5q-24 535 -205 1016z" />
<glyph unicode="x" horiz-adv-x="731" d="M88 979q0 18 11 35.5t28 17.5q13 0 23 -10q2 0 2 -2q47 -66 87 -151.5t62 -149t53 -164.5q0 -2 25 -72q139 285 219 539q0 13 7.5 23t21.5 10t26.5 -12t12.5 -25l-2 -4q-83 -273 -254 -623q79 -217 180 -330q10 -13 4 -30q-5 -11 -18.5 -21t-26.5 -10t-23 10 q-91 116 -159 293q-55 -109 -168 -321q-1 0 -2 -1t-2 -1q-10 -13 -23 -13q-12 0 -22 10q-16 16 -13 50v8q114 198 197 358q-8 23 -22.5 67t-18.5 54q-47 154 -91 259.5t-112 195.5q-2 4 -2 10z" />
<glyph unicode="y" horiz-adv-x="813" d="M109 879q1 26 12.5 41.5t28.5 15.5q14 0 26 -12q4 -4 4 -6q170 -467 275 -887q2 -2 0 -4q0 -12 -9.5 -18.5t-23.5 -6.5q-15 0 -25 7.5t-10 19.5q-106 427 -276 843q0 1 -1 3.5t-1 3.5zM242 -813q37 138 129 459q78 267 119 417.5t89.5 384.5t79.5 480q0 10 9.5 17t23.5 7 q20 0 29 -12q9 -9 6 -20q-31 -244 -79.5 -477.5t-88.5 -383t-117 -415.5q-69 -231 -133 -467q-3 -33 -30 -33q-15 0 -29 14q-11 14 -8 25v4z" />
<glyph unicode="z" horiz-adv-x="755" d="M59 0q12 89 39 174t74 173.5t82 145t98 152.5q146 221 201 342q-44 8 -102 8q-134 0 -213 -51l-2 -2q-16 -4 -21 -4q-29 0 -39 27q-7 28 14 43q0 2 5 2q139 47 282 47q64 0 127 -13q14 -3 23 -12q6 -10 6 -24q-2 -2 -2 -4q-57 -133 -217 -377q-7 -10 -35.5 -54.5 t-40 -62.5t-33.5 -53t-38 -63.5t-31 -57.5q-81 -160 -105 -301q27 2 96 10q221 25 330 25q41 0 115 -4q12 -1 19 -11t5 -24q0 -13 -9 -22t-21 -9q-74 4 -113 4q-112 0 -324 -24q-21 -2 -68 -7.5t-71 -7.5h-4q-12 2 -20 11.5t-7 23.5z" />
<glyph unicode="{" horiz-adv-x="313" d="M82 1561q3 104 49 186q3 8 12 8h25q6 0 8 -2q32 -16 55 -67l2 -3q3 -3 3 -8q0 -14 -7 -28q-10 -17 -24 -17q-13 0 -21 8q-1 1 -2 3.5t-2 3.5q0 2 -1 6t-1 6q-2 7 -5.5 15.5t-4.5 10.5q-26 -49 -30.5 -116t2 -115.5t22.5 -132.5l12 -62q54 -181 -6 -278q21 -22 31.5 -58.5 t12 -62.5t1.5 -74q0 -133 -25 -358v-2q-1 -5 -3.5 -16.5t-2.5 -14.5q-31 -229 -22 -336q6 -93 41 -149q39 -63 104 -78q13 0 19 -6q10 -7 10 -19t-9.5 -21t-21.5 -9h-2q-162 38 -192 237q-19 131 12 314q30 331 35 395v27q5 170 -56 200q-8 4 -8 13v26q0 9 6 12 q47 41 47 134q-2 52 -28 163q-10 45 -15 70q-22 126 -20 195z" />
<glyph unicode="|" horiz-adv-x="325" d="M111 -80q22 153 33 313.5t12 341.5t-1.5 305t-9.5 328q-8 300 -8 453q-7 25 17 33q13 4 25.5 -3t15.5 -18v-4q2 -163 10 -440q10 -307 13 -455t-7 -401t-41 -453q0 -6 -2 -4q-11 -22 -27 -22q-20 -9 -28 18q0 4 -2 8z" />
<glyph unicode="}" horiz-adv-x="321" d="M-10 1710q0 12 8.5 21.5t19.5 9.5h5q160 -38 190 -238q18 -120 -12 -313q-25 -253 -37 -395q0 -4 -1 -13t-1 -14v-11q0 -47 1.5 -75t14.5 -65t39 -50q10 -3 10 -14v-27q0 -7 -6 -10q-26 -22 -38 -55t-9 -79.5t8 -76t17 -82.5q12 -55 14 -73q23 -107 20 -195 q-3 -108 -47 -186q-6 -9 -14 -9h-25q-4 0 -6 2q-34 15 -57 68l-2 2v6q0 19 6 31q6 16 23 16q14 0 20 -8q4 -4 4 -6q1 -2 2 -6t2 -6q7 -21 11 -27q25 48 30 114t-1 113.5t-21 130.5l-13 68q-54 179 5 279q-20 22 -30.5 58t-12 63t-1.5 73q0 145 27 359v2q0 10 4 30 q35 220 25 336q-10 100 -41 150q-39 64 -105 78q-12 0 -18 6q-8 5 -8 18z" />
<glyph unicode="~" horiz-adv-x="1024" d="M123 766q-14 27 4 57l12 13q107 63 215 63q63 0 146 -25q12 -2 36 -8t37 -8q44 -18 84 -18h25q21 0 45.5 14.5t38 27t43.5 42.5l4 8q16 16 39 16q29 0 41 -24q20 -33 0 -66q-1 -1 -3.5 -2.5t-3.5 -2.5t-1 -3q-24 -18 -25 -19q-61 -65 -112 -86q-27 -16 -74 -16 q-44 0 -68 12q-12 0 -16 4h-8q-129 46 -215 46q-93 0 -158 -50q-16 -8 -25 -8q-39 0 -61 33z" />
<glyph unicode="&#xa1;" horiz-adv-x="235" d="M57 1479q0 45 35 63q18 12 41 12q50 0 62 -38q4 -8 4 -11q4 -16 4 -22q0 -43 -37 -62q-2 -6 -14 -10q-4 0 -11.5 -1t-11.5 -1q-55 0 -68 43v2q-4 16 -4 25zM98 985v240q0 10 9.5 18t21.5 8q13 0 22 -7.5t9 -18.5v-258q0 -687 10 -951q0 -12 -10 -20t-23 -8q-9 0 -16.5 7 t-7.5 19h-2q-13 301 -13 971z" />
<glyph unicode="&#xa2;" horiz-adv-x="759" d="M86 616q-28 216 47 416q50 133 135 209q95 86 217 86h17q3 15 30 139.5t43 192.5q0 14 8.5 21.5t18.5 7.5q12 0 22.5 -9.5t10.5 -21.5v-4q-17 -70 -74 -334q38 -7 94 -31q23 -7 23 -35q-1 -15 -10 -24.5t-21 -9.5h-2q-4 0 -4 2q-43 18 -94 28l-6 -26q-121 -586 -226 -920 q77 -57 187 -57q68 0 145 24h6q21 -3 27 -20q6 -25 -23 -47q-2 0 -4 -2q-89 -25 -159 -25q-113 0 -201 55q-49 -151 -100 -270q0 -3 -3 -6q-14 -14 -30 -14q-11 0 -18 7t-7 19q0 2 2 4q53 138 107 301q-61 57 -102 146t-56 198zM147 635q21 -180 119 -289q40 134 82.5 305.5 t63 263.5t67.5 304l6 34q-94 -3 -172 -69q-72 -64 -118 -183q-70 -173 -48 -366z" />
<glyph unicode="&#xa3;" horiz-adv-x="794" d="M86 356q3 71 66 113q46 29 114 37q-12 93 -51 256q-7 31 -22 82q-22 87 -32 130.5t-22.5 118t-10.5 138t17 125.5q26 91 93 155q69 66 159 66q51 0 109 -25q53 -21 125 -100q79 -84 84 -158q6 -61 -53 -98l-3 -2q-12 -4 -18 -4q-22 0 -29 20q-6 22 21 39q20 11 20 35 q3 36 -29.5 85.5t-62.5 72.5l-2 2q-76 76 -164 76q-37 0 -73 -19q-3 0 -3 -2q-39 -19 -66.5 -54t-40.5 -75.5t-21 -86.5t-6.5 -87.5t3.5 -77.5q13 -113 70 -301q57 -194 70 -303h57q59 0 86 -2h53q10 0 17.5 -8.5t7.5 -20.5q0 -8 -4 -16q-10 -10 -21 -10h-55q-25 2 -84 2 h-51q12 -215 -68 -389q98 20 174 20q117 0 207 -37q27 -12 23 -39q-4 -18 -23 -18q-7 0 -16 6q-85 31 -187 31q-101 0 -213 -31q-5 -7 -15 -22.5t-15 -22.5q0 -12 -13 -16q-2 0 -2 -2q-3 -15 -16 -15q-11 0 -18 10.5t-7 22.5q0 5 -6 17t-12 18q-6 3 -6 12q0 10 6.5 19 t17.5 10q24 9 52 16q96 164 75 404q-131 -21 -131 -99q-3 -24 -28 -24q-12 0 -19.5 7.5t-7.5 18.5z" />
<glyph unicode="&#xa5;" horiz-adv-x="790" d="M86 1516q10 16 31 16q12 0 22 -10l2 -2q49 -81 87.5 -175.5t63 -174t47 -191.5t33 -182.5t27.5 -190.5q3 -26 9 -49q41 101 62 209t40 266q13 104 20.5 153t24.5 136t42 156.5t60 134.5l2 4q10 10 23 10q12 0 21.5 -11.5t9.5 -35.5q0 -6 -2 -8q-35 -63 -60 -129.5 t-43 -154t-26 -135.5t-23 -159q-18 -134 -28 -199.5t-39.5 -174t-71.5 -191.5l-4 -4h71q87 0 213 4h2q10 0 15.5 -9t5.5 -18q0 -6 -4 -14q-8 -8 -17 -8q-105 -6 -237 -6h-53v-17h88q87 0 213 4h2q10 0 15 -8.5t5 -17.5q0 -7 -4 -15q-8 -8 -16 -8q-105 -6 -238 -6h-61 q4 -40 6 -63q14 -126 14 -222q0 -12 -8 -19t-20 -7q-14 0 -22.5 7t-8.5 19q0 76 -12 220q-1 13 -3.5 35.5t-3.5 29.5q-7 0 -20.5 1t-20.5 1h-155q-9 0 -16 7.5t-7 19.5q0 10 7 17t16 7q113 0 168 -2h24q0 13 -2 17q-31 0 -47 2h-155q-9 0 -16 7t-7 19q0 10 7 17.5t16 7.5 q112 0 167 -2h33v39q0 11 8 16q-7 38 -20 133q-15 105 -22.5 152.5t-24.5 143t-33.5 155t-41 138.5t-56.5 146.5t-72 129.5q-12 22 -2 39z" />
<glyph unicode="&#xa6;" horiz-adv-x="321" d="M100 860q-3 3 0 10q28 63 37.5 138.5t7 126.5t-11.5 141q-10 127 -10 154q-5 8 -2 14q6 12 24 12q30 0 35 -16v-4q1 -27 6.5 -80t6.5 -60q8 -72 11 -112t2.5 -103t-13 -117t-37.5 -106q-3 -6 -6 -6q-11 -8 -25 -8q-22 0 -25 16zM116 455.5q1 64.5 14.5 117.5t39.5 103 q3 6 6 6q11 8 25 8q21 0 24 -16q3 -3 0 -10q-29 -62 -39.5 -137.5t-9.5 -124.5t8 -142q9 -115 9 -158q5 -5 2 -12q-6 -12 -25 -12q-30 0 -35 16v4q-2 49 -10 146q-6 76 -8 111.5t-1 100z" />
<glyph unicode="&#xa7;" horiz-adv-x="516" d="M108.5 766.5q-1.5 39.5 14 76t47.5 68.5q11 7 18 7q22 0 29 -21q6 -15 -4 -29h-2q-77 -68 -43 -184q3 -11 7 -22t8 -20.5t10.5 -22.5l10.5 -21t12 -22t12 -20.5t13.5 -21.5t13 -20t14 -21t12.5 -20q4 -6 25.5 -40t29.5 -50q35 -67 45 -113q15 -75 -12 -125l-2 -2 q-24 -33 -60.5 -52t-73.5 -19q-39 0 -75 20q-2 2 -4 2q-12 16 -7 29q9 18 37 18q1 0 4.5 -1t4.5 -1q22 -16 49 -16q42 0 73 35q39 51 13 121q-15 57 -80 159q-13 18 -31 47q-24 39 -38 64t-35 68t-27.5 76.5t-8 73zM117 1305v2q-12 55 61 137h2q74 55 142 55q73 0 79 -76v-2 q0 -9 -7 -15.5t-17 -6.5q-9 0 -17 6.5t-8 15.5q-5 29 -37 29q-31 0 -67.5 -20.5t-59.5 -49.5q-27 -36 -20 -67q12 -61 68 -176q3 -6 9 -19.5t9 -19.5q1 -1 2 -3t2 -3q134 -306 80 -390q-23 -32 -66 -32q-10 0 -17 7t-7 17q0 9 4 17q7 10 20 10q18 0 23 10q25 33 -23 172 l-2 6q-20 68 -75 197q-27 63 -43 106q-20 29 -35 93z" />
<glyph unicode="&#xa8;" horiz-adv-x="462" d="M29 1448q0 45 41 68q7 10 18 10q8 2 23 2q59 0 75 -49q4 -8 4 -27q0 -51 -38 -72q-18 -12 -46 -12q-56 0 -69 49q-8 13 -8 31zM82 1444q0 -8 2 -10q10 -13 25 -13q10 0 16 6q1 0 4 3q8 4 8 20q0 8 -2 12q-7 15 -22 15h-2q-3 -7 -11 -7q-18 -11 -18 -26zM279 1452 q0 46 40 68q7 10 19 10q8 2 22 2q60 0 76 -49q4 -8 4 -27q0 -50 -39 -72q-18 -12 -45 -12q-56 0 -69 49q-8 13 -8 31zM332 1448q0 -8 2 -10q10 -13 24 -13q10 0 17 7q2 0 4 2q8 4 8 20q0 8 -2 12q-7 15 -23 15h-2q-3 -6 -10 -6q-18 -11 -18 -27z" />
<glyph unicode="&#xa9;" horiz-adv-x="851" d="M51 586q-20 153 10 274q19 111 70 174q63 78 154 78q35 0 73 -12q18 0 21 -17q40 7 65 7q83 0 148 -35q70 -37 121 -113q65 -108 71 -250q9 -138 -34 -258q-72 -230 -240 -264q-27 -6 -59 -6q-95 0 -175 45q-84 43 -137 121q-66 105 -88 256zM102 705q7 -167 54 -271v-2 q32 -88 112 -149q79 -66 176 -66q32 0 70 10q79 29 137 121q47 77 68 182q22 104 5 211.5t-67 182.5q-77 108 -215 108q-86 0 -168 -39q-1 0 -3 -1t-3 -1q-24 0 -35 21q-6 17 9 32q5 5 6 5q8 4 24 8h-6q-72 0 -112 -64q-61 -96 -52 -288zM213 627q-22 149 53 233 q56 68 160 68q15 0 43 -4q14 0 23 -6q8 -5 8 -21q0 -12 -9.5 -22.5t-21.5 -10.5q-1 0 -2 1t-2 1q-12 2 -39 2q-77 0 -119 -51q-55 -65 -37 -172q14 -65 48.5 -105t78.5 -40q41 0 86 39q8 8 21 8q22 0 33 -25q10 -16 -7 -30v-3q-74 -57 -143 -57q-37 0 -65 19h-3 q-87 71 -106 176z" />
<glyph unicode="&#xaa;" horiz-adv-x="436" d="M78 1481q-6 10 2 18l2 2q68 31 108 31q36 0 70 -21q37 -21 55.5 -57t20.5 -65q20 -63 16 -170v-177q0 -1 -1 -3t-1 -3q0 -2 -4 -10q-4 -4 -10 -4q-100 0 -154 16q-80 23 -96 101q-13 94 45 161q25 35 78 46h49q15 -3 29 -3q15 0 26 7v2q-16 88 -55 125h-2q-28 28 -63 28 q-39 0 -87 -28v-2q-10 -5 -14 -5q-8 0 -14 11zM117 1137q14 -55 78 -76q37 -10 127 -10v147q3 64 -5 121q-4 -2 -16 -2q-10 0 -14 2h-17q-28 0 -43 -1t-34.5 -7.5t-32.5 -20.5q-53 -62 -43 -153z" />
<glyph unicode="&#xab;" horiz-adv-x="727" d="M63 500q0 2 1.5 4.5t1.5 3.5q15 36 37 66.5t52 57.5t50.5 43.5t56.5 41.5q34 32 96 98q65 72 125 127q2 4 11 4q35 0 41 -22q7 -20 -11 -35l-2 -2q-37 -23 -92 -82l-19 -19l-21 -21t-18.5 -17t-23 -18.5t-22.5 -14.5q-31 -35 -84 -82q-80 -76 -105 -111q-2 -11 33 -33 q31 -15 43 -30q10 -14 39 -39q41 -36 72 -74q86 -54 233 -168q12 0 18 -6q13 -10 13 -22q0 -14 -11 -24.5t-26 -10.5q-4 0 -8 4q-190 128 -451 354q-14 1 -21.5 9.5t-7.5 17.5zM272 500q0 2 1 4.5t1 3.5q13 31 39.5 61t40.5 41t52 39q13 12 36.5 36.5t28.5 29.5q51 55 82 82 q2 4 10 4q26 0 33 -17q6 -18 -8 -30l-2 -2q-20 -12 -62 -54q-35 -40 -67 -59q-19 -21 -56 -51q-49 -45 -69 -72q0 -5 20 -16q15 -9 29 -23q3 -4 7 -8.5t10 -9t10 -8.5q27 -23 47 -48q84 -57 151 -110q7 0 15 -4q10 -10 10 -21t-9.5 -19.5t-21.5 -8.5q-4 0 -8 4 q-122 83 -283 221l-14 12q-13 3 -16 10q-7 10 -7 13z" />
<glyph unicode="&#xad;" d="M78 512q0 14 4 14q39 0 126 -2t137 -2.5t123 1t134 5.5q2 0 3.5 -6t1 -12.5t-4.5 -7.5q-78 -6 -162 -7t-197 1t-161 2q-4 0 -4 14z" />
<glyph unicode="&#xae;" horiz-adv-x="849" d="M63 842q12 128 77.5 206.5t176.5 98.5q38 12 74 12q55 0 107.5 -28.5t89.5 -68t71 -91.5t51.5 -86.5t30.5 -67.5q50 -126 56 -244q9 -143 -41 -243q-30 -76 -103 -121q-62 -39 -151 -39q-64 0 -131 25q-66 26 -128 94t-108 164q-91 202 -72 389zM139 891 q-40 -160 17 -338q60 -185 188 -274h2q65 -50 154 -50q77 0 139 41q64 45 88 125q28 118 -2 262q-29 138 -94 244q-45 85 -103 137q-67 58 -131 58q-49 0 -94 -31l-2 -2q-12 -6 -22 -6q-13 0 -25 12q-46 -23 -76 -69t-37 -107q0 -2 -2 -2zM209 795v2q0 18 18 24q9 60 41 92 q44 41 121 41q21 0 33 -2q10 0 19 -7.5t10 -20.5q6 -42 -7 -88.5t-24.5 -69t-42.5 -76.5l-10 -20q11 -11 14 -13q12 -8 22 -18q5 -7 23 -16q24 -16 33 -25l127 -127q14 -14 4 -33q-3 -10 -13.5 -17t-21.5 -7q-8 0 -20 8q0 2 -3 2q-69 84 -235 221q-4 4 -4 12v29q0 6 4 10 q23 23 68 97q40 76 28 100q0 6 -12 6q-7 0 -27 -4v-2q-38 -8 -54.5 -33.5t-16.5 -77.5v-2q-5 -34 -2 -82q1 -12 4 -34t4 -33l6 -31q14 -96 14 -125q0 -11 -8 -18.5t-20 -7.5t-20.5 7t-8.5 17q-37 267 -39 281z" />
<glyph unicode="&#xaf;" horiz-adv-x="718" d="M72 1501q0 14 5.5 23.5t12.5 9.5q21 -1 64 -2t65 -2q29 0 90 -1t92 -1q124 0 205 8h2q16 0 19 -31q0 -27 -17 -30q-125 -11 -223 -11q-30 0 -89 1t-87 1q-20 1 -60.5 2t-60.5 2q-8 0 -13 9t-5 22z" />
<glyph unicode="&#xb0;" horiz-adv-x="555" d="M92 1522q0 65 39 123q54 73 143 73q17 0 17 -12q0 -1 -1 -3t-1 -3q-4 -4 -15 -4q-34 0 -69 -21q-28 -19 -45 -51q-31 -51 -31 -121q0 -24 1.5 -37t10.5 -32.5t27 -32.5q45 -25 78 -25q22 0 35 8q63 19 109.5 87.5t39.5 132.5q-9 78 -102 96q-3 0 -7.5 1t-5.5 1q-6 6 -6 8 q0 14 19 14q3 0 8.5 -1t7.5 -1q2 -4 10 -4h4q52 -18 78.5 -53t25.5 -71.5t-13 -73.5q-28 -62 -64 -101q-51 -60 -125 -63q-8 -2 -20 -2q-48 0 -90 28q-33 26 -47 65.5t-11 74.5z" />
<glyph unicode="&#xb1;" horiz-adv-x="862" d="M72 170q0 14 7 23.5t17 9.5q28 -1 84 -2t84 -2q39 0 118.5 -1t119.5 -1q159 0 266 8h2q8 0 16 -8t9 -23q0 -28 -23 -31q-147 -10 -291 -10q-38 0 -114 1t-113 1q-26 1 -79 2t-79 2q-10 0 -17 8.5t-7 22.5zM74 586q0 13 12 22q4 2 20 6q100 19 218 19h47q-6 294 -6 336 q0 11 8.5 18.5t21.5 7.5t23 -7.5t10 -18.5q0 -190 6 -340l111 -6q167 -9 211 -9q12 0 20 -9t8 -21q0 -13 -8 -22t-20 -9q-73 0 -213 8q-33 4 -107 8q4 -152 4 -274q0 -12 -9 -20.5t-21 -8.5q-13 0 -22 8.5t-9 20.5q0 162 -6 276h-49q-120 0 -211 -18h-4q-12 0 -23.5 10.5 t-11.5 22.5z" />
<glyph unicode="&#xb4;" horiz-adv-x="313" d="M55 1350q0 22 8 28q27 24 50 47q2 2 12.5 12t13 12.5t12 11t12.5 11.5t11.5 10t13 10.5t12 9t13 9t12 8t13.5 7.5q2 2 6 2q27 0 35 -19q6 -15 -7 -28l-4 -4q-56 -23 -137 -113q-19 -19 -27 -29q-8 -8 -18 -8q-20 0 -31 23z" />
<glyph unicode="&#xb6;" horiz-adv-x="722" d="M88 1190q10 118 90 246q90 139 178 139q61 0 109 -66q7 19 22 19q11 0 20 -10.5t9 -22.5v-2q-37 -322 -49 -725q10 -7 10 -25q0 -17 -10 -24q-6 -233 -6 -703q0 -10 -8 -18t-19 -8q-10 0 -18 8t-8 18q0 464 6 695h-19q-140 0 -231 94v2q-54 63 -72 174q-13 96 -4 209z M141 1137q-8 -76 9 -164q15 -85 59 -144q64 -61 170 -61q23 0 35 2q13 412 43 670q-2 -2 -8 -2q-12 0 -19 10l-2 2q-35 66 -76 66q-46 0 -114 -80q-97 -149 -97 -297v-2zM486 708q0 194 18 415.5t55 410.5q0 16 8 23.5t19 7.5q13 0 25 -10t12 -23v-2q-37 -191 -55 -410.5 t-17.5 -409.5t2.5 -403q0 -47 1 -144t1 -145q0 -12 -10 -21t-23 -9t-23 9t-10 21q0 46 -1 139t-1 138q-1 219 -1 413z" />
<glyph unicode="&#xb7;" horiz-adv-x="262" d="M47 510q-13 35 2.5 69.5t46.5 45.5q-6 6 6 6q39 7 72.5 -4t44.5 -45q11 -32 0.5 -65t-39.5 -50q-33 -22 -76.5 -12t-52.5 47zM115 623h2h6h-8z" />
<glyph unicode="&#xb8;" horiz-adv-x="428" d="M106 -309q3 16 23 16q10 0 18 -8q13 -10 27 -10q23 0 51.5 21.5t40.5 51.5v2q27 55 -4 91q-21 24 -51 24q-21 0 -47 -16q-3 -8 -14 -8q-10 0 -17.5 7.5t-7.5 16.5q0 1 1 3t1 3q9 18 18 33q36 65 62 98h2q3 7 14 7q9 0 16 -8t7 -17q0 -8 -4 -10q-23 -29 -45 -68h16 q38 0 66 -22q26 -22 35.5 -56.5t-1.5 -66.5q-13 -49 -51 -84q-41 -41 -88 -41q-35 0 -57 22q-11 6 -11 19z" />
<glyph unicode="&#xba;" horiz-adv-x="657" d="M63 1276q0 72 39 134t105 97q0 8 10 15q3 2 13.5 6.5l17.5 7.5q58 8 84 8q94 0 160.5 -42t89.5 -116q14 -46 14 -96q0 -77 -33.5 -139.5t-95.5 -97.5q-71 -41 -154 -41q-87 0 -147.5 42t-79.5 115q-23 71 -23 107zM162 1257q0 -33 18 -65q47 -78 144 -78q53 0 96 37h4 q65 41 65 139q0 35 -14 70q-34 82 -133 82q-25 0 -37 -4q-2 -2 -5 -4.5t-5 -4t-5 -4t-5.5 -3.5t-6 -2t-6.5 -1q-50 -22 -80 -66t-30 -96z" />
<glyph unicode="&#xbb;" horiz-adv-x="702" d="M94 762q0 11 9.5 19t21.5 7q6 0 8 -4q122 -87 277 -227l14 -12q6 -3 16 -13q3 -9 6 -12l-4 -8q-10 -24 -24.5 -44t-37.5 -39t-33.5 -27t-39.5 -27q-12 -11 -34 -33l-33 -33q-51 -51 -84 -78q-2 -4 -11 -4q-24 0 -30 19q-5 16 8 30h2q31 19 61 52q43 43 70 57q24 27 59 51 q20 16 72 68q-5 9 -20 18q-15 8 -29 25q-3 5 -13.5 14t-13.5 12q-25 21 -45 50q-93 66 -149 112q-12 4 -13 4q-10 10 -10 23zM141 879q-1 13 10.5 23.5t26.5 8.5q2 2 6 -2q201 -144 443 -368q14 -1 21 -9.5t7 -17.5l-4 -8q-30 -66 -80 -112t-122 -91q-8 -7 -44 -42t-55 -52 q-52 -58 -129 -125q0 -6 -8 -2q-33 -3 -41 20q-7 22 10 35l4 4q44 25 93 78q6 5 24.5 23.5t27.5 26.5t25 19.5t31 18.5q17 20 86 80q5 4 22 19t24.5 22t20.5 19.5t22.5 23.5t17.5 23q2 11 -31 34q-29 15 -43 31q-12 21 -39 41q-43 43 -68 76q-57 36 -229 172q-13 3 -18 8 q-14 10 -11 23z" />
<glyph unicode="&#xbf;" horiz-adv-x="663" d="M74 264v2q3 112 41 207q5 12 11 24t14.5 24.5t13.5 21t17 22.5t16.5 19t19 20.5t17 18l19.5 19.5l17 17l31 31q116 110 133 301q19 174 2 332v2q0 16 9 25.5t20 9.5t19.5 -9.5t8.5 -25.5q4 -73 5.5 -106.5t1.5 -102.5t-5.5 -113t-19 -101t-35.5 -105q-14 -35 -39.5 -72 t-45 -59t-54.5 -58q-36 -38 -55 -59t-42.5 -56.5t-35.5 -70.5q-34 -96 -21 -197q15 -125 86 -168q41 -24 82 -24q91 0 168 90q34 40 54 89t20 93q4 25 31 25q12 0 19.5 -7.5t6.5 -17.5q0 -112 -80 -215q-84 -113 -196 -113h-15q-111 0 -176 93q-54 77 -63 194zM389 1462 q0 15 2 23q3 8 10 12v2q0 4 2 6q2 12 15 21q6 6 14 6q6 0 14 -4q1 -1 4.5 -2t4.5 -2q7 -7 22 -37h2q7 -11 2 -19q0 -2 -4 -6q0 -4 -2 -6q-4 -4 -8 -6q-8 -22 -43 -31q-8 -4 -12 -4q-11 0 -19 12q-3 10 0 23q-4 8 -4 12z" />
<glyph unicode="&#xc0;" horiz-adv-x="845" d="M53 29l2 2q29 164 74 463q56 363 88 530q55 277 135 516q0 10 9.5 18.5t21.5 8.5t20.5 -7.5t8.5 -17.5q224 -662 387 -1509q3 -13 -6 -25q-10 -10 -25 -10q-24 0 -27 29q-5 26 -55 270q-91 6 -188 6q-104 0 -338 -12q-17 -104 -45 -262q0 -11 -9 -25q-12 -8 -20 -8 q-10 0 -20 10q-13 10 -13 23zM168 352h8q236 13 330 13q75 0 168 -7q-128 590 -291 1084q-63 -211 -106 -432.5t-87 -515.5q-7 -51 -22 -142zM260 1872q7 18 37 18q4 0 6 -2q50 -24 129 -100q8 -7 25 -23t26 -24q13 -10 9 -29q-11 -22 -31 -22q-11 0 -19 8l-28 28 q-85 89 -144 113l-4 4q-13 13 -6 29z" />
<glyph unicode="&#xc1;" horiz-adv-x="831" d="M53 29l2 2q29 164 74 463q56 363 88 530q55 277 135 516q0 10 9.5 18.5t21.5 8.5t20.5 -7.5t8.5 -17.5q224 -662 387 -1509q3 -13 -6 -25q-10 -10 -25 -10q-24 0 -27 29q-5 26 -55 270q-91 6 -188 6q-104 0 -338 -12q-17 -104 -45 -262q0 -11 -9 -25q-12 -8 -20 -8 q-10 0 -20 10q-13 10 -13 23zM168 352h8q236 13 330 13q75 0 168 -7q-128 590 -291 1084q-63 -211 -106 -432.5t-87 -515.5q-7 -51 -22 -142zM250 1716q0 23 8 29q18 16 49 47q82 78 125 100q2 2 6 2q28 0 35 -18q7 -16 -6 -29l-4 -4q-57 -24 -137 -112q-19 -19 -27 -29 q-8 -8 -18 -8q-20 0 -31 22z" />
<glyph unicode="&#xc2;" horiz-adv-x="849" d="M53 29l2 2q29 164 74 463q56 363 88 530q55 277 135 516q0 10 9.5 18.5t21.5 8.5t20.5 -7.5t8.5 -17.5q224 -662 387 -1509q3 -13 -6 -25q-10 -10 -25 -10q-24 0 -27 29q-5 26 -55 270q-91 6 -188 6q-104 0 -338 -12q-17 -104 -45 -262q0 -11 -9 -25q-12 -8 -20 -8 q-10 0 -20 10q-13 10 -13 23zM168 352h8q236 13 330 13q75 0 168 -7q-128 590 -291 1084q-63 -211 -106 -432.5t-87 -515.5q-7 -51 -22 -142zM229 1671q0 8 2 12q46 68 119 152v2q4 10 14.5 14.5t18.5 1.5q40 -17 76 -67l2 -4q5 -5 15.5 -14.5t15.5 -14.5l47 -47q6 -6 6 -14 q0 -9 -4 -17q-11 -14 -23 -14t-20 10l-4 4q-8 13 -25 27q-28 28 -33 37q-18 18 -26 28l-25 25q-2 -2 -6.5 -7.5t-7.5 -8.5l-11 -11q-6 -8 -24 -26q-11 -16 -29.5 -41t-25.5 -35q0 -5 -5 -10q-5 -8 -20 -8q-11 0 -19 8t-8 18z" />
<glyph unicode="&#xc3;" horiz-adv-x="858" d="M53 29l2 2q29 164 74 463q56 363 88 530q55 277 135 516q0 10 9.5 18.5t21.5 8.5t20.5 -7.5t8.5 -17.5q224 -662 387 -1509q3 -13 -6 -25q-10 -10 -25 -10q-24 0 -27 29q-5 26 -55 270q-91 6 -188 6q-104 0 -338 -12q-17 -104 -45 -262q0 -11 -9 -25q-12 -8 -20 -8 q-10 0 -20 10q-13 10 -13 23zM168 352h8q236 13 330 13q75 0 168 -7q-128 590 -291 1084q-63 -211 -106 -432.5t-87 -515.5q-7 -51 -22 -142zM193 1720q-7 14 2 29l6 6q54 33 108 33q33 0 74 -12q6 -1 18.5 -4.5t18.5 -4.5q23 -10 43 -10h12q11 0 24 8t18.5 13.5l21.5 21.5 l2 4q8 8 20 8q15 0 21 -12q10 -16 0 -33l-4 -4q-2 -2 -6.5 -5t-6.5 -5q-34 -34 -57 -43q-13 -8 -37 -8q-23 0 -35 6q-6 0 -8 2h-4q-67 23 -109 23q-43 0 -79 -25q-8 -4 -13 -4q-19 0 -30 16z" />
<glyph unicode="&#xc4;" horiz-adv-x="868" d="M53 29l2 2q29 164 74 463q56 363 88 530q55 277 135 516q0 10 9.5 18.5t21.5 8.5t20.5 -7.5t8.5 -17.5q224 -662 387 -1509q3 -13 -6 -25q-10 -10 -25 -10q-24 0 -27 29q-5 26 -55 270q-91 6 -188 6q-104 0 -338 -12q-17 -104 -45 -262q0 -11 -9 -25q-12 -8 -20 -8 q-10 0 -20 10q-13 10 -13 23zM168 352h8q236 13 330 13q75 0 168 -7q-128 590 -291 1084q-63 -211 -106 -432.5t-87 -515.5q-7 -51 -22 -142zM178 1745q0 44 41 67q7 11 19 11q8 2 22 2q60 0 76 -49q4 -8 4 -27q0 -50 -39 -72q-18 -12 -45 -12q-57 0 -70 49q-8 13 -8 31z M231 1741q0 -8 2 -10q10 -13 25 -13q10 0 16 6q3 0 5 2q8 4 8 21q0 8 -2 12q-7 15 -23 15h-2q-4 -7 -10 -7q-19 -11 -19 -26zM428 1749q0 45 41 68q7 10 18 10q8 2 23 2q60 0 76 -49q4 -8 4 -27q0 -50 -39 -72q-18 -12 -45 -12q-57 0 -70 49q-8 13 -8 31zM481 1745 q0 -8 2 -10q10 -13 25 -13q9 0 16 7q2 0 4 2q9 5 9 20q0 8 -2 12q-7 15 -23 15h-2q-3 -6 -10 -6q-19 -11 -19 -27z" />
<glyph unicode="&#xc5;" horiz-adv-x="858" d="M53 29l2 2q29 164 74 463q56 363 88 530q55 277 135 516q0 10 9.5 18.5t21.5 8.5t20.5 -7.5t8.5 -17.5q224 -662 387 -1509q3 -13 -6 -25q-10 -10 -25 -10q-24 0 -27 29q-5 26 -55 270q-91 6 -188 6q-104 0 -338 -12q-17 -104 -45 -262q0 -11 -9 -25q-12 -8 -20 -8 q-10 0 -20 10q-13 10 -13 23zM168 352h8q236 13 330 13q75 0 168 -7q-128 590 -291 1084q-63 -211 -106 -432.5t-87 -515.5q-7 -51 -22 -142zM260 1780q0 32 17.5 59.5t46.5 42.5q0 2 4 6q8 4 14 6q24 4 37 4q41 0 70 -18.5t40 -50.5q7 -25 7 -43q0 -74 -58 -105 q-30 -18 -67 -18q-38 0 -66 19t-35 51q-10 27 -10 47zM303 1772q0 -13 8 -29q21 -35 64 -35q24 0 43 16h2q29 19 29 62q0 14 -7 31q-14 36 -59 36q-10 0 -16 -2q-8 -8 -15 -8q-22 -9 -35.5 -28.5t-13.5 -42.5z" />
<glyph unicode="&#xc6;" horiz-adv-x="862" d="M70 29v4q37 193 84 581q25 198 40 307t46.5 277t68.5 303q0 14 8.5 22.5t18.5 8.5q20 0 31 -23q32 -4 49 -4q42 0 141 21q108 22 150 22q30 0 57 -6q8 0 14 -6t6 -16q0 -13 -10.5 -25t-23.5 -12h-5q-24 6 -51 6q-35 0 -143 -23q-90 -20 -139 -20q-15 0 -43 4l6 -61 q6 -99 6 -103v-199q0 -262 14 -395v-2q0 -213 8 -317q20 0 52 4q10 1 30.5 4t30.5 4q122 18 193 18q11 0 18.5 -8t7.5 -20q0 -13 -7.5 -22t-18.5 -9q-46 0 -144 -12q-122 -15 -147 -15h-10q9 -61 28 -151q3 -23 10 -53v-4q0 -16 9 -68q72 33 204 33q38 0 56 -2h47 q11 0 18.5 -8.5t7.5 -20.5q0 -13 -7.5 -22t-18.5 -9h-47q-16 2 -51 2q-149 0 -209 -51q-1 0 -2 -1t-2 -1q-3 -2 -5 -2q-6 -6 -16 -6q-6 0 -18 8q-14 11 -17 25q0 14 4 20q0 7 -4 23q-8 40 -8 65q-12 39 -12 92q-4 15 -8 45q-17 87 -17 88q-9 1 -26 2.5t-25 2.5 q-117 6 -121 6q-15 -106 -49 -303q0 -13 -6 -19q-10 -10 -21 -10q-12 0 -22 9.5t-10 21.5zM186 389q39 0 105 -8q10 -1 55 -6q-2 27 -5 81t-5 81q-9 167 -14 204v562q-51 -243 -109 -693q-4 -37 -13.5 -110.5t-13.5 -110.5z" />
<glyph unicode="&#xc7;" horiz-adv-x="534" d="M36 422.5q-2 109.5 5 193.5q6 82 6 170v41q0 105 1.5 163.5t10.5 150.5t27 168v2q85 241 379 241q11 0 19 -8t8 -20t-8 -20.5t-19 -8.5q-177 0 -240 -78h-2q-70 -70 -94 -196q-20 -210 -20 -437q0 -80 -7 -190q-8 -207 -2 -309l2 -9q7 -32 12 -49.5t15.5 -44.5t26 -45.5 t37.5 -30.5v-2q37 -24 87.5 -36t85 -13.5t99.5 -1.5q11 0 19 -8t8 -20t-8 -20.5t-19 -8.5q-40 -4 -62 -4q-43 0 -84 6q0 -6 -4 -14q-15 -17 -41 -60h9q37 0 67 -24q26 -22 36.5 -57.5t0.5 -69.5q-12 -47 -51 -86q-44 -41 -92 -41q-37 0 -62 22q-13 10 -10 25q4 18 27 18 q8 0 20 -8q13 -10 25 -10q23 0 50.5 21.5t37.5 49.5v3q25 49 -2 83q-25 25 -49 25q-21 0 -43 -16q-11 -11 -19 -11q-11 0 -20 9t-9 22q0 1 1.5 4t1.5 4q9 18 18 33q36 66 55 88q-29 7 -82 33q-109 62 -127 184q-19 88 -21 197.5z" />
<glyph unicode="&#xc8;" horiz-adv-x="630" d="M74 629q4 55 4 170q0 102 1.5 158.5t12.5 141.5t33 150q77 237 330 336l4 2q43 0 53 -24q7 -14 -10 -31q-1 0 -2 -1t-2 -1q-125 -43 -207 -125q-72 -75 -105 -176q-21 -61 -32 -139.5t-13 -135.5t-2 -149v-6h4q52 -13 176 -17q156 -4 230 -28q2 0 4 -2q17 -15 10 -29 q-10 -23 -55 -23h-4q-55 21 -199 25q-122 4 -166 16q0 -30 -4 -100q-27 -373 103 -512q76 -82 204 -82q14 0 50 4q12 0 19 -8t7 -20q0 -11 -7 -19t-17 -8q-40 -4 -56 -4q-154 0 -245 98q-143 152 -119 539zM260 1872q7 18 37 18q4 0 6 -2q50 -24 129 -100q8 -7 25 -23 t26 -24q13 -10 9 -29q-11 -22 -31 -22q-11 0 -19 8l-28 28q-85 89 -144 113l-4 4q-13 13 -6 29z" />
<glyph unicode="&#xc9;" horiz-adv-x="634" d="M74 629q4 55 4 170q0 102 1.5 158.5t12.5 141.5t33 150q77 237 330 336l4 2q43 0 53 -24q7 -14 -10 -31q-1 0 -2 -1t-2 -1q-125 -43 -207 -125q-72 -75 -105 -176q-21 -61 -32 -139.5t-13 -135.5t-2 -149v-6h4q52 -13 176 -17q156 -4 230 -28q2 0 4 -2q17 -15 10 -29 q-10 -23 -55 -23h-4q-55 21 -199 25q-122 4 -166 16q0 -30 -4 -100q-27 -373 103 -512q76 -82 204 -82q14 0 50 4q12 0 19 -8t7 -20q0 -11 -7 -19t-17 -8q-40 -4 -56 -4q-154 0 -245 98q-143 152 -119 539zM250 1716q0 23 8 29q18 16 49 47q82 78 125 100q2 2 6 2 q28 0 35 -18q7 -16 -6 -29l-4 -4q-57 -24 -137 -112q-19 -19 -27 -29q-8 -8 -18 -8q-20 0 -31 22z" />
<glyph unicode="&#xca;" horiz-adv-x="638" d="M74 629q4 55 4 170q0 102 1.5 158.5t12.5 141.5t33 150q77 237 330 336l4 2q43 0 53 -24q7 -14 -10 -31q-1 0 -2 -1t-2 -1q-125 -43 -207 -125q-72 -75 -105 -176q-21 -61 -32 -139.5t-13 -135.5t-2 -149v-6h4q52 -13 176 -17q156 -4 230 -28q2 0 4 -2q17 -15 10 -29 q-10 -23 -55 -23h-4q-55 21 -199 25q-122 4 -166 16q0 -30 -4 -100q-27 -373 103 -512q76 -82 204 -82q14 0 50 4q12 0 19 -8t7 -20q0 -11 -7 -19t-17 -8q-40 -4 -56 -4q-154 0 -245 98q-143 152 -119 539zM186 1675q0 9 2 13q43 64 119 151v2q4 10 14.5 15t18.5 2 q39 -17 76 -68l2 -4q5 -5 15.5 -14.5t15.5 -14.5l13.5 -13.5t18 -17.5t15.5 -16q6 -6 6 -14q0 -9 -4 -17q-10 -14 -23 -14t-20 10l-4 4q-8 13 -25 27q-28 28 -33 37q-14 14 -26 29q-21 21 -25 24q-2 -2 -6.5 -7.5t-7.5 -8.5l-11 -11q-6 -8 -24 -26q-11 -16 -29.5 -41 t-25.5 -35q0 -5 -5 -10q-5 -8 -20 -8q-11 0 -19 8t-8 18z" />
<glyph unicode="&#xcb;" horiz-adv-x="651" d="M74 629q4 55 4 170q0 102 1.5 158.5t12.5 141.5t33 150q77 237 330 336l4 2q43 0 53 -24q7 -14 -10 -31q-1 0 -2 -1t-2 -1q-125 -43 -207 -125q-72 -75 -105 -176q-21 -61 -32 -139.5t-13 -135.5t-2 -149v-6h4q52 -13 176 -17q156 -4 230 -28q2 0 4 -2q17 -15 10 -29 q-10 -23 -55 -23h-4q-55 21 -199 25q-122 4 -166 16q0 -30 -4 -100q-27 -373 103 -512q76 -82 204 -82q14 0 50 4q12 0 19 -8t7 -20q0 -11 -7 -19t-17 -8q-40 -4 -56 -4q-154 0 -245 98q-143 152 -119 539zM147 1737q0 44 41 67q7 11 19 11q8 2 22 2q28 0 48.5 -13.5 t27.5 -36.5q4 -8 4 -26q0 -50 -39 -72q-18 -12 -45 -12q-56 0 -69 49q-9 15 -9 31zM201 1733q0 -9 2 -11q9 -12 24 -12q11 0 17 6q2 0 4 2q8 4 8 21q0 8 -2 12q-7 14 -23 14h-2q-3 -6 -10 -6q-18 -11 -18 -26zM397 1741q0 44 41 67q7 11 19 11q8 2 22 2q60 0 76 -49 q4 -8 4 -27q0 -50 -39 -72q-18 -12 -45 -12q-56 0 -69 49q-9 15 -9 31zM451 1737q0 -9 2 -11q9 -12 24 -12q11 0 17 6q2 0 4 2q8 4 8 21q0 8 -2 12q-7 14 -23 14h-2q-3 -6 -10 -6q-18 -11 -18 -26z" />
<glyph unicode="&#xcc;" horiz-adv-x="251" d="M-8 1860q7 18 37 18q4 0 6 -2q50 -24 129 -100q8 -7 25 -23t26 -24q12 -9 8 -29q-11 -23 -30 -23q-10 0 -19 9l-29 28q-28 29 -44 45t-44 36.5t-55 31.5l-4 4q-13 13 -6 29zM86 1532v4l2 8q1 10 9.5 17.5t19.5 7.5q10 0 19.5 -9t10.5 -26q29 -458 25 -1266v-250 q0 -12 -9.5 -21t-21.5 -9q-13 0 -22.5 9t-9.5 21q0 899 -23 1514z" />
<glyph unicode="&#xcd;" horiz-adv-x="258" d="M63 1716q0 22 9 29q18 16 49 47q82 78 125 100q2 2 6 2q28 0 35 -18q7 -16 -6 -29l-5 -4q-57 -24 -137 -112q-14 -14 -26 -29q-8 -8 -19 -8q-20 0 -31 22zM86 1532v4l2 8q1 10 9.5 17.5t19.5 7.5q10 0 19.5 -9t10.5 -26q29 -458 25 -1266v-250q0 -12 -9.5 -21t-21.5 -9 q-13 0 -22.5 9t-9.5 21q0 899 -23 1514z" />
<glyph unicode="&#xce;" horiz-adv-x="249" d="M-45 1671q0 8 2 12q46 68 119 152v2q4 10 14.5 14.5t18.5 1.5q39 -17 75 -67l2 -4q5 -5 15.5 -14.5t15.5 -14.5l47 -47q6 -6 6 -14q0 -9 -4 -17q-11 -14 -22 -14q-14 0 -21 10l-4 4q-9 15 -24 27q-28 28 -33 37q-23 23 -27 28q-2 2 -10.5 11.5t-13.5 13.5q-2 -2 -7 -7.5 t-8 -8.5l-10 -11q-3 -4 -25 -26q-11 -16 -29.5 -41t-25.5 -35q0 -6 -4 -10q-5 -8 -20 -8q-11 0 -19 8t-8 18zM86 1532v4l2 8q1 10 9.5 17.5t19.5 7.5q10 0 19.5 -9t10.5 -26q29 -458 25 -1266v-250q0 -12 -9.5 -21t-21.5 -9q-13 0 -22.5 9t-9.5 21q0 899 -23 1514z" />
<glyph unicode="&#xcf;" horiz-adv-x="260" d="M-92 1745q0 44 41 67q7 11 18 11q8 2 23 2q60 0 76 -49q4 -8 4 -27q0 -50 -39 -72q-18 -12 -45 -12q-57 0 -70 49q-8 13 -8 31zM-39 1741q0 -8 2 -10q10 -13 25 -13q10 0 16 6q2 0 4 2q8 4 8 21q0 8 -2 12q-8 15 -22 15h-2q-4 -7 -10 -7q-19 -11 -19 -26zM86 1532v4l2 8 q1 10 9.5 17.5t19.5 7.5q10 0 19.5 -9t10.5 -26q29 -458 25 -1266v-250q0 -12 -9.5 -21t-21.5 -9q-13 0 -22.5 9t-9.5 21q0 899 -23 1514zM158 1749q0 45 41 68q7 10 18 10q8 2 23 2q59 0 75 -49q4 -8 4 -27q0 -51 -38 -72q-18 -12 -45 -12q-57 0 -70 49q-8 13 -8 31z M211 1745q0 -8 2 -10q10 -13 25 -13q9 0 16 7q2 0 4 2q8 4 8 20q0 8 -2 12q-8 15 -22 15h-2q-3 -6 -11 -6q-18 -11 -18 -27z" />
<glyph unicode="&#xd0;" horiz-adv-x="862" d="M-12 729q0 11 10.5 20t28.5 9h2q8 0 25 -1t26 -1q41 0 123 8q0 33 2 49q1 32 6 93t6 75q12 121 16 193.5t-4 177.5t-36 188q-11 14 -5 25q3 16 25 16q18 0 27 -12q10 0 16 -6q128 -54 236 -179q100 -114 174 -282q70 -165 94 -334q25 -183 -2 -330q-38 -196 -152 -311 q-128 -128 -342 -137q-4 -25 -31 -25q-12 0 -20 8t-8 19q0 94 -4 278q-4 291 0 437q-75 -11 -125 -11q-9 0 -26 1t-25 1q-17 1 -27 10.5t-10 20.5zM260 268q4 -144 4 -219q191 9 305 123q106 106 136 285q24 140 0 309q-21 154 -89 313q-65 150 -155.5 257.5t-194.5 156.5 q21 -78 26 -175t1.5 -160.5t-14.5 -176.5q-13 -122 -15 -170q0 -6 -1 -19.5t-1 -19.5q90 8 131 8q53 0 92 -8q9 0 15 -6t6 -16q0 -12 -10.5 -25.5t-24.5 -13.5q-2 0 -4 2q-58 8 -94 8q-31 0 -113 -8q-4 -153 0 -445z" />
<glyph unicode="&#xd1;" horiz-adv-x="833" d="M86 -25q4 249 8 779q5 655 8 778q0 12 8.5 19.5t22.5 7.5q12 0 21.5 -7.5t9.5 -19.5v-12l2 -2q0 19 6 28q8 8 14 8q12 0 17 -14q130 -340 332 -936q67 -202 147 -428q10 135 14 469q0 99 2 150q1 73 -4 438q-4 212 -4 323q0 11 6 17t13 6q14 0 26.5 -16.5t12.5 -36.5 q0 -109 6 -232q8 -334 6 -508q-2 -57 -2 -170q0 -365 -29 -579q-3 -23 -31 -23q-25 0 -28 23q-16 44 -48 133t-47 133q-270 764 -413 1145q-2 -95 -3 -203.5t-1.5 -238.5t-1.5 -201q-4 -493 -11 -832q0 -11 -8.5 -18.5t-21.5 -7.5q-12 0 -20.5 7.5t-8.5 18.5v2zM193 1720 q-7 14 2 29l6 6q54 33 108 33q33 0 74 -12q6 -1 18.5 -4.5t18.5 -4.5q23 -10 43 -10h12q11 0 24 8t18.5 13.5l21.5 21.5l2 4q8 8 20 8q15 0 21 -12q10 -16 0 -33l-4 -4q-2 -2 -6.5 -5t-6.5 -5q-34 -34 -57 -43q-13 -8 -37 -8q-23 0 -35 6q-6 0 -8 2h-4q-67 23 -109 23 q-43 0 -79 -25q-8 -4 -13 -4q-19 0 -30 16z" />
<glyph unicode="&#xd2;" horiz-adv-x="890" d="M63 819q1 197 34 370t87 275q-3 17 4 27l2 2q3 2 8.5 7t8.5 7q2 3 14 15q4 4 11 11.5t10 10.5l2 2q10 7 22 4q76 43 158 43q140 0 219 -114q136 -164 174 -484q27 -338 -22 -587v-2q-1 -4 -3.5 -11.5t-3.5 -11.5q-18 -55 -27 -81t-30 -76.5t-40 -81t-50 -64.5t-66 -55h-2 q-76 -43 -149 -43q-137 0 -227 155q-65 111 -100 289.5t-34 392.5zM119 754q0 -270 63 -441q18 -51 33 -86.5t38 -75t52.5 -64t65.5 -32.5h2q30 -12 63 -12q78 0 144 66q60 57 96 153v2q60 122 78 257t18 308q-11 218 -46.5 340t-86.5 201l-2 2q-19 53 -56 92t-83 54 q-51 14 -84 14q-80 0 -138 -49q-41 -41 -66.5 -107t-51.5 -168q-39 -250 -39 -454zM260 1872q7 18 37 18q4 0 6 -2q50 -24 129 -100q8 -7 25 -23t26 -24q13 -10 9 -29q-11 -22 -31 -22q-11 0 -19 8l-28 28q-85 89 -144 113l-4 4q-13 13 -6 29z" />
<glyph unicode="&#xd3;" horiz-adv-x="897" d="M63 819q1 197 34 370t87 275q-3 17 4 27l2 2q3 2 8.5 7t8.5 7q2 3 14 15q4 4 11 11.5t10 10.5l2 2q10 7 22 4q76 43 158 43q140 0 219 -114q136 -164 174 -484q27 -338 -22 -587v-2q-1 -4 -3.5 -11.5t-3.5 -11.5q-18 -55 -27 -81t-30 -76.5t-40 -81t-50 -64.5t-66 -55h-2 q-76 -43 -149 -43q-137 0 -227 155q-65 111 -100 289.5t-34 392.5zM119 754q0 -270 63 -441q18 -51 33 -86.5t38 -75t52.5 -64t65.5 -32.5h2q30 -12 63 -12q78 0 144 66q60 57 96 153v2q60 122 78 257t18 308q-11 218 -46.5 340t-86.5 201l-2 2q-19 53 -56 92t-83 54 q-51 14 -84 14q-80 0 -138 -49q-41 -41 -66.5 -107t-51.5 -168q-39 -250 -39 -454zM250 1716q0 23 8 29q18 16 49 47q82 78 125 100q2 2 6 2q28 0 35 -18q7 -16 -6 -29l-4 -4q-57 -24 -137 -112q-19 -19 -27 -29q-8 -8 -18 -8q-20 0 -31 22z" />
<glyph unicode="&#xd4;" horiz-adv-x="897" d="M63 819q1 197 34 370t87 275q-3 17 4 27l2 2q3 2 8.5 7t8.5 7q2 3 14 15q4 4 11 11.5t10 10.5l2 2q10 7 22 4q76 43 158 43q140 0 219 -114q136 -164 174 -484q27 -338 -22 -587v-2q-1 -4 -3.5 -11.5t-3.5 -11.5q-18 -55 -27 -81t-30 -76.5t-40 -81t-50 -64.5t-66 -55h-2 q-76 -43 -149 -43q-137 0 -227 155q-65 111 -100 289.5t-34 392.5zM119 754q0 -270 63 -441q18 -51 33 -86.5t38 -75t52.5 -64t65.5 -32.5h2q30 -12 63 -12q78 0 144 66q60 57 96 153v2q60 122 78 257t18 308q-11 218 -46.5 340t-86.5 201l-2 2q-19 53 -56 92t-83 54 q-51 14 -84 14q-80 0 -138 -49q-41 -41 -66.5 -107t-51.5 -168q-39 -250 -39 -454zM229 1671q0 8 2 12q46 68 119 152v2q4 10 14.5 14.5t18.5 1.5q40 -17 76 -67l2 -4q5 -5 15.5 -14.5t15.5 -14.5l47 -47q6 -6 6 -14q0 -9 -4 -17q-11 -14 -23 -14t-20 10l-4 4q-8 13 -25 27 q-28 28 -33 37q-18 18 -26 28l-25 25q-2 -2 -6.5 -7.5t-7.5 -8.5l-11 -11q-6 -8 -24 -26q-11 -16 -29.5 -41t-25.5 -35q0 -5 -5 -10q-5 -8 -20 -8q-11 0 -19 8t-8 18z" />
<glyph unicode="&#xd5;" horiz-adv-x="890" d="M63 819q1 197 34 370t87 275q-3 17 4 27l2 2q3 2 8.5 7t8.5 7q2 3 14 15q4 4 11 11.5t10 10.5l2 2q10 7 22 4q76 43 158 43q140 0 219 -114q136 -164 174 -484q27 -338 -22 -587v-2q-1 -4 -3.5 -11.5t-3.5 -11.5q-18 -55 -27 -81t-30 -76.5t-40 -81t-50 -64.5t-66 -55h-2 q-76 -43 -149 -43q-137 0 -227 155q-65 111 -100 289.5t-34 392.5zM119 754q0 -270 63 -441q18 -51 33 -86.5t38 -75t52.5 -64t65.5 -32.5h2q30 -12 63 -12q78 0 144 66q60 57 96 153v2q60 122 78 257t18 308q-11 218 -46.5 340t-86.5 201l-2 2q-19 53 -56 92t-83 54 q-51 14 -84 14q-80 0 -138 -49q-41 -41 -66.5 -107t-51.5 -168q-39 -250 -39 -454zM193 1720q-7 14 2 29l6 6q54 33 108 33q33 0 74 -12q6 -1 18.5 -4.5t18.5 -4.5q23 -10 43 -10h12q11 0 24 8t18.5 13.5l21.5 21.5l2 4q8 8 20 8q15 0 21 -12q10 -16 0 -33l-4 -4 q-2 -2 -6.5 -5t-6.5 -5q-34 -34 -57 -43q-13 -8 -37 -8q-23 0 -35 6q-6 0 -8 2h-4q-67 23 -109 23q-43 0 -79 -25q-8 -4 -13 -4q-19 0 -30 16z" />
<glyph unicode="&#xd6;" horiz-adv-x="897" d="M63 819q1 197 34 370t87 275q-3 17 4 27l2 2q3 2 8.5 7t8.5 7q2 3 14 15q4 4 11 11.5t10 10.5l2 2q10 7 22 4q76 43 158 43q140 0 219 -114q136 -164 174 -484q27 -338 -22 -587v-2q-1 -4 -3.5 -11.5t-3.5 -11.5q-18 -55 -27 -81t-30 -76.5t-40 -81t-50 -64.5t-66 -55h-2 q-76 -43 -149 -43q-137 0 -227 155q-65 111 -100 289.5t-34 392.5zM119 754q0 -270 63 -441q18 -51 33 -86.5t38 -75t52.5 -64t65.5 -32.5h2q30 -12 63 -12q78 0 144 66q60 57 96 153v2q60 122 78 257t18 308q-11 218 -46.5 340t-86.5 201l-2 2q-19 53 -56 92t-83 54 q-51 14 -84 14q-80 0 -138 -49q-41 -41 -66.5 -107t-51.5 -168q-39 -250 -39 -454zM178 1745q0 44 41 67q7 11 19 11q8 2 22 2q60 0 76 -49q4 -8 4 -27q0 -50 -39 -72q-18 -12 -45 -12q-57 0 -70 49q-8 13 -8 31zM231 1741q0 -8 2 -10q10 -13 25 -13q10 0 16 6q3 0 5 2 q8 4 8 21q0 8 -2 12q-7 15 -23 15h-2q-4 -7 -10 -7q-19 -11 -19 -26zM428 1749q0 45 41 68q7 10 18 10q8 2 23 2q60 0 76 -49q4 -8 4 -27q0 -50 -39 -72q-18 -12 -45 -12q-57 0 -70 49q-8 13 -8 31zM481 1745q0 -8 2 -10q10 -13 25 -13q9 0 16 7q2 0 4 2q9 5 9 20q0 8 -2 12 q-7 15 -23 15h-2q-3 -6 -10 -6q-19 -11 -19 -27z" />
<glyph unicode="&#xd7;" horiz-adv-x="747" d="M61 221q-6 16 5 31q119 116 270 278q-106 112 -195 170q-2 2 -4 2q-15 15 -6 39q6 19 25 19q12 0 24 -12q101 -69 199 -175q167 175 233 242q9 6 19 6q24 0 31 -22q6 -16 -5 -31q-27 -26 -235 -240l74 -86q79 -93 141 -155q11 -14 4 -31q-7 -20 -29 -20q-10 0 -20 10 q-64 64 -146 160q-48 56 -67 77q-172 -180 -268 -276q-9 -6 -19 -6q-24 0 -31 20z" />
<glyph unicode="&#xd8;" horiz-adv-x="915" d="M68 780q-1 209 31 392t89 292q-4 16 5 25q0 1 1 2t1 2q6 4 16 14l35 35q0 2 2 2q9 6 22 6q77 41 158 41q92 0 158 -51q9 37 20 94q1 14 9.5 22.5t19.5 8.5q12 0 22.5 -10.5t10.5 -22.5v-4q-25 -107 -31 -137q2 -2 10 -14q136 -164 174 -482v-2q27 -338 -22 -587v-3 q-1 -3 -3 -10t-3 -10q-13 -41 -18.5 -57t-20 -56t-24 -60t-27.5 -53t-34.5 -53t-39.5 -42t-49 -37h-2q-76 -43 -150 -43q-90 0 -158 65q-9 -24 -43 -110q-1 -1 -2 -3.5t-2 -3.5q-16 -16 -30 -16q-11 0 -19 8.5t-8 20.5q0 1 1 3t1 3q26 61 57 149q-75 102 -116 291 q-38 178 -41 391zM123 754q0 -269 63 -443q33 -96 62 -145q17 49 33.5 103t30 98.5t30 106.5t26.5 99t26.5 107.5t24 99.5t24.5 107.5t22 99.5t23.5 106.5t21.5 100.5q37 170 61 283q-35 28 -69 39q-41 14 -84 14q-78 0 -137 -47q-41 -42 -67.5 -109.5t-51.5 -167.5 q-39 -246 -39 -452zM293 104q36 -39 82 -51h2q33 -10 63 -10q78 0 144 63q57 54 96 154v2q60 122 78 257t18 308q-11 218 -46.5 340t-86.5 201q-2 2 -2 4q-14 32 -20 43q-8 -36 -24 -108.5t-24 -108.5q-50 -241 -80.5 -379t-86 -344.5t-113.5 -370.5z" />
<glyph unicode="&#xd9;" horiz-adv-x="966" d="M76 807.5q-3 214.5 8 382.5q10 182 10 328q0 11 8.5 18.5t20.5 7.5q13 0 22 -7.5t9 -18.5q0 -32 -11 -324q-11 -159 -9 -362t32 -361v-2q23 -150 59 -238q52 -135 146 -172q41 -20 88 -20q87 0 164 74q65 65 110 168q53 149 70.5 310.5t17.5 360.5q0 126 -1.5 196.5 t-10.5 180t-27 199.5v2q0 13 10 22t23 9q10 0 18.5 -7.5t8.5 -21.5q59 -277 37 -707v-14q-12 -233 -37 -365q-40 -210 -133 -337q-47 -62 -114.5 -97t-137.5 -35q-79 0 -138 39q-88 55 -147 183q-38 86 -63 227q-30 167 -33 381.5zM319 1872q7 18 37 18q4 0 6 -2 q52 -25 130 -100q8 -7 25 -23t26 -24q12 -9 8 -29q-11 -22 -31 -22q-10 0 -18 8l-29 28q-28 29 -44 45t-44 36.5t-55 31.5l-4 4q-13 13 -7 29z" />
<glyph unicode="&#xda;" horiz-adv-x="956" d="M76 807.5q-3 214.5 8 382.5q10 182 10 328q0 11 8.5 18.5t20.5 7.5q13 0 22 -7.5t9 -18.5q0 -32 -11 -324q-11 -159 -9 -362t32 -361v-2q23 -150 59 -238q52 -135 146 -172q41 -20 88 -20q87 0 164 74q65 65 110 168q53 149 70.5 310.5t17.5 360.5q0 126 -1.5 196.5 t-10.5 180t-27 199.5v2q0 13 10 22t23 9q10 0 18.5 -7.5t8.5 -21.5q59 -277 37 -707v-14q-12 -233 -37 -365q-40 -210 -133 -337q-47 -62 -114.5 -97t-137.5 -35q-79 0 -138 39q-88 55 -147 183q-38 86 -63 227q-30 167 -33 381.5zM346 1714q0 23 8 29q18 16 49 47 q82 78 125 100q2 2 7 2q27 0 34 -18q7 -16 -6 -29l-4 -4q-57 -24 -137 -112q-19 -19 -27 -29q-8 -8 -18 -8q-20 0 -31 22z" />
<glyph unicode="&#xdb;" horiz-adv-x="966" d="M76 807.5q-3 214.5 8 382.5q10 182 10 328q0 11 8.5 18.5t20.5 7.5q13 0 22 -7.5t9 -18.5q0 -32 -11 -324q-11 -159 -9 -362t32 -361v-2q23 -150 59 -238q52 -135 146 -172q41 -20 88 -20q87 0 164 74q65 65 110 168q53 149 70.5 310.5t17.5 360.5q0 126 -1.5 196.5 t-10.5 180t-27 199.5v2q0 13 10 22t23 9q10 0 18.5 -7.5t8.5 -21.5q59 -277 37 -707v-14q-12 -233 -37 -365q-40 -210 -133 -337q-47 -62 -114.5 -97t-137.5 -35q-79 0 -138 39q-88 55 -147 183q-38 86 -63 227q-30 167 -33 381.5zM299 1673q0 9 2 13q43 64 119 151v2 q4 10 14.5 14.5t18.5 1.5q39 -17 75 -67l2 -4q5 -5 15.5 -14.5t15.5 -14.5l13.5 -13.5t18 -17.5t15.5 -16q6 -6 6 -14q0 -9 -4 -17q-10 -14 -22 -14q-14 0 -21 10l-4 4q-9 15 -24 27q-28 28 -33 37q-23 23 -27 28q-2 2 -10.5 12t-13.5 13q-2 -2 -7 -7.5t-8 -8.5l-10 -11 q-6 -8 -24 -26q-11 -15 -30 -40.5t-26 -35.5q0 -6 -4 -10q-5 -8 -20 -8q-11 0 -19 8t-8 18z" />
<glyph unicode="&#xdc;" horiz-adv-x="966" d="M76 807.5q-3 214.5 8 382.5q10 182 10 328q0 11 8.5 18.5t20.5 7.5q13 0 22 -7.5t9 -18.5q0 -32 -11 -324q-11 -159 -9 -362t32 -361v-2q23 -150 59 -238q52 -135 146 -172q41 -20 88 -20q87 0 164 74q65 65 110 168q53 149 70.5 310.5t17.5 360.5q0 126 -1.5 196.5 t-10.5 180t-27 199.5v2q0 13 10 22t23 9q10 0 18.5 -7.5t8.5 -21.5q59 -277 37 -707v-14q-12 -233 -37 -365q-40 -210 -133 -337q-47 -62 -114.5 -97t-137.5 -35q-79 0 -138 39q-88 55 -147 183q-38 86 -63 227q-30 167 -33 381.5zM254 1747q0 45 41 68q7 10 18 10q8 2 23 2 q60 0 76 -49q4 -8 4 -27q0 -50 -39 -72q-18 -12 -45 -12q-57 0 -70 49q-8 13 -8 31zM307 1743q0 -8 2 -10q10 -13 25 -13q10 0 16 6q1 0 4 3q8 4 8 20q0 8 -2 12q-8 15 -22 15h-2q-4 -7 -10 -7q-19 -11 -19 -26zM504 1751q0 45 41 68q7 10 18 10q8 2 23 2q60 0 76 -49 q4 -8 4 -27q0 -50 -39 -72q-18 -12 -45 -12q-57 0 -70 49q-8 13 -8 31zM557 1747q0 -8 2 -10q10 -13 25 -13q9 0 16 7q2 0 4 2q8 4 8 20q0 8 -2 12q-8 15 -22 15h-2q-3 -6 -11 -6q-18 -11 -18 -27z" />
<glyph unicode="&#xdd;" horiz-adv-x="739" d="M59 1481q-10 19 0 35q9 18 31 18t25 -18q80 -271 190 -713q24 -102 66 -258q45 104 83.5 243t57 230t53.5 274q26 148 62 318q6 18 22 18q13 0 25 -12q13 -17 10 -39q-19 -97 -45 -246q-30 -164 -45 -240.5t-46 -209t-68.5 -238.5t-86.5 -209q0 -138 2 -201v-213 q0 -10 -8 -17t-20 -7q-14 0 -22.5 7t-8.5 17v422q0 4 -2 4v3q-42 166 -107 391q-9 34 -41.5 151.5t-47.5 172.5t-38.5 148t-40.5 169zM250 1716q0 23 8 29q18 16 49 47q82 78 125 100q2 2 6 2q28 0 35 -18q7 -16 -6 -29l-4 -4q-57 -24 -137 -112q-19 -19 -27 -29 q-8 -8 -18 -8q-20 0 -31 22z" />
<glyph unicode="&#xde;" horiz-adv-x="790" d="M47 1614v2q0 12 8.5 19t22.5 7q12 0 21.5 -7t9.5 -17q33 -236 47 -399q64 61 143 61q136 0 268 -160q56 -68 91 -147t40 -146q13 -144 -4 -231q-23 -131 -116 -215q-117 -102 -306 -102q-50 0 -79 4q2 -131 2 -394q0 -12 -8.5 -19t-22.5 -7t-22.5 7t-8.5 19q0 269 -2 402 q-22 4 -22 31q0 26 22 30q-8 765 -84 1262zM162 1145q28 -366 31 -797q20 -2 61 -2q171 0 274 74q68 61 97 158q26 82 26 204q-10 99 -54 186t-112 146q-2 0 -2 2q-89 103 -186 103q-76 0 -135 -74z" />
<glyph unicode="&#xdf;" horiz-adv-x="747" d="M92 700q5 41 7.5 59t10 63t17 72.5t24 62.5t35.5 59t47 39q53 26 109 26q73 0 127 -48.5t74 -131.5v-2q15 -108 -45 -199q-48 -67 -121 -104q128 -30 184 -84q62 -54 92 -131t21 -158q-18 -144 -115 -209h-2q-46 -24 -96 -24q-80 0 -185 57q-2 0 -4 2q-13 13 -6 33 q9 18 29 18q6 0 18 -4h2q73 -49 142 -49q45 0 84 25v2q43 28 66 82.5t16 109.5q-21 180 -136 232q0 2 -2 2q-60 39 -186 59q-3 1 -8 2t-8 2q-9 0 -16 8t-7 19q0 6 4 14q5 8 17 12q97 22 157 101q63 80 41 178q-4 27 -13 52.5t-37 54.5t-69 34q-52 0 -95 -27t-66 -75 q-75 -163 -54 -488q11 -175 56 -528v-2q0 -5 4 -33q17 -95 14.5 -150.5t-31.5 -62.5h-4q-10 0 -18 9t-8 20q0 6 4 14q-2 12 -2 37q0 62 -13 96v4l-2 25q-2 17 -12.5 117.5t-17.5 152.5q-38 293 -23 555z" />
<glyph unicode="&#xe0;" horiz-adv-x="604" d="M49 942q-10 21 4 39l4 2q40 22 64.5 34t60.5 23t68 11q65 0 123 -43q45 -29 77 -83t43.5 -94t16.5 -79q14 -57 21 -120.5t7 -119t-1 -119.5v-370q0 -3 -5 -13q0 -14 -6 -20q-7 -10 -18 -10q-182 0 -272 34q-143 55 -170 211v2q-25 192 79 336q35 71 138 96h2q15 3 32 3 q9 0 54 -5q16 -2 47 -2q32 0 49 11v4q-27 187 -98 264h-2q-53 59 -115 59q-67 0 -152 -61v-2q-12 -6 -22 -6q-22 0 -29 18zM119 219q23 -116 137 -156q71 -26 225 -26v311q4 168 -6 254q-8 -2 -29 -2q-18 0 -28 2h-27q-50 0 -76 -2t-61.5 -15t-58.5 -40 q-43 -63 -63.5 -150.5t-12.5 -175.5zM137 1526q7 18 37 18q4 0 6 -2q50 -24 129 -100q8 -7 25 -23t26 -24q13 -10 9 -29q-11 -23 -31 -23q-10 0 -19 9l-28 28q-85 89 -144 113l-4 4q-13 13 -6 29z" />
<glyph unicode="&#xe1;" horiz-adv-x="602" d="M49 942q-10 21 4 39l4 2q40 22 64.5 34t60.5 23t68 11q65 0 123 -43q45 -29 77 -83t43.5 -94t16.5 -79q14 -57 21 -120.5t7 -119t-1 -119.5v-370q0 -3 -5 -13q0 -14 -6 -20q-7 -10 -18 -10q-182 0 -272 34q-143 55 -170 211v2q-25 192 79 336q35 71 138 96h2q15 3 32 3 q9 0 54 -5q16 -2 47 -2q32 0 49 11v4q-27 187 -98 264h-2q-53 59 -115 59q-67 0 -152 -61v-2q-12 -6 -22 -6q-22 0 -29 18zM119 219q23 -116 137 -156q71 -26 225 -26v311q4 168 -6 254q-8 -2 -29 -2q-18 0 -28 2h-27q-50 0 -76 -2t-61.5 -15t-58.5 -40 q-43 -63 -63.5 -150.5t-12.5 -175.5zM150 1350q0 22 8 28q18 16 49 47q2 2 12.5 12t13 12.5t12 11t12.5 11.5t11.5 10t13 10.5t12 9t13 9t12 8t13.5 7.5q2 2 6 2q27 0 35 -19q6 -16 -6 -28l-5 -4q-56 -23 -137 -113q-14 -14 -26 -29q-8 -8 -19 -8q-18 0 -30 23z" />
<glyph unicode="&#xe2;" horiz-adv-x="604" d="M49 942q-10 21 4 39l4 2q40 22 64.5 34t60.5 23t68 11q65 0 123 -43q45 -29 77 -83t43.5 -94t16.5 -79q14 -57 21 -120.5t7 -119t-1 -119.5v-370q0 -3 -5 -13q0 -14 -6 -20q-7 -10 -18 -10q-182 0 -272 34q-143 55 -170 211v2q-25 192 79 336q35 71 138 96h2q15 3 32 3 q9 0 54 -5q16 -2 47 -2q32 0 49 11v4q-27 187 -98 264h-2q-53 59 -115 59q-67 0 -152 -61v-2q-12 -6 -22 -6q-22 0 -29 18zM102 1346q0 8 2 12q43 64 119 151v2q4 10 14.5 15t18.5 2q39 -17 76 -68l2 -4q5 -5 15.5 -14.5t15.5 -14.5l47 -47q6 -6 6 -14t-4 -16 q-11 -15 -23 -15t-20 11l-4 4q-7 12 -25 26q-28 28 -33 37q-14 14 -26 29q-21 21 -25 24q-2 -2 -6.5 -7.5t-7.5 -8.5l-11 -10q-9 -12 -24 -27q-11 -16 -29.5 -41t-25.5 -35q0 -6 -4 -10q-5 -8 -21 -8q-11 0 -19 8.5t-8 18.5zM119 219q23 -116 137 -156q71 -26 225 -26v311 q4 168 -6 254q-8 -2 -29 -2q-18 0 -28 2h-27q-50 0 -76 -2t-61.5 -15t-58.5 -40q-43 -63 -63.5 -150.5t-12.5 -175.5z" />
<glyph unicode="&#xe3;" horiz-adv-x="614" d="M49 942q-10 21 4 39l4 2q40 22 64.5 34t60.5 23t68 11q65 0 123 -43q45 -29 77 -83t43.5 -94t16.5 -79q14 -57 21 -120.5t7 -119t-1 -119.5v-370q0 -3 -5 -13q0 -14 -6 -20q-7 -10 -18 -10q-182 0 -272 34q-143 55 -170 211v2q-25 192 79 336q35 71 138 96h2q15 3 32 3 q9 0 54 -5q16 -2 47 -2q32 0 49 11v4q-27 187 -98 264h-2q-53 59 -115 59q-67 0 -152 -61v-2q-12 -6 -22 -6q-22 0 -29 18zM72 1430q-7 13 2 28l6 6q54 33 108 33q33 0 74 -12q6 -1 18.5 -4t18.5 -4q26 -11 43 -11h12q11 0 24 8t18.5 13.5l21.5 21.5l2 4q9 9 20 9 q14 0 21 -13q10 -16 0 -32l-4 -4q-2 -2 -6.5 -5.5t-6.5 -5.5q-34 -34 -57 -43q-13 -8 -37 -8q-23 0 -35 6q-6 0 -8 2h-4q-67 23 -108 23q-44 0 -80 -25q-8 -4 -13 -4q-19 0 -30 17zM119 219q23 -116 137 -156q71 -26 225 -26v311q4 168 -6 254q-8 -2 -29 -2q-18 0 -28 2h-27 q-50 0 -76 -2t-61.5 -15t-58.5 -40q-43 -63 -63.5 -150.5t-12.5 -175.5z" />
<glyph unicode="&#xe4;" horiz-adv-x="610" d="M49 942q-10 21 4 39l4 2q40 22 64.5 34t60.5 23t68 11q65 0 123 -43q45 -29 77 -83t43.5 -94t16.5 -79q14 -57 21 -120.5t7 -119t-1 -119.5v-370q0 -3 -5 -13q0 -14 -6 -20q-7 -10 -18 -10q-182 0 -272 34q-143 55 -170 211v2q-25 192 79 336q35 71 138 96h2q15 3 32 3 q9 0 54 -5q16 -2 47 -2q32 0 49 11v4q-27 187 -98 264h-2q-53 59 -115 59q-67 0 -152 -61v-2q-12 -6 -22 -6q-22 0 -29 18zM59 1434q0 44 41 67q7 10 19 10q8 2 22 2q60 0 76 -49q4 -8 4 -26q0 -50 -39 -72q-18 -12 -45 -12q-56 0 -69 49q-9 15 -9 31zM113 1430q0 -9 2 -11 q9 -12 24 -12q11 0 17 6q2 0 4 2q8 4 8 21q0 8 -2 12q-7 14 -23 14h-2q-3 -6 -10 -6q-18 -11 -18 -26zM119 219q23 -116 137 -156q71 -26 225 -26v311q4 168 -6 254q-8 -2 -29 -2q-18 0 -28 2h-27q-50 0 -76 -2t-61.5 -15t-58.5 -40q-43 -63 -63.5 -150.5t-12.5 -175.5z M309 1438q0 44 41 67q7 11 19 11q8 2 22 2q28 0 48.5 -13.5t27.5 -36.5q4 -8 4 -26q0 -50 -39 -72q-18 -12 -45 -12q-57 0 -70 49q-8 13 -8 31zM362 1434q0 -8 3 -11q9 -12 24 -12q11 0 17 6q2 0 4 2q8 4 8 21q0 8 -2 12q-7 14 -23 14h-2q-3 -6 -10 -6q-19 -11 -19 -26z" />
<glyph unicode="&#xe5;" horiz-adv-x="604" d="M49 942q-10 21 4 39l4 2q40 22 64.5 34t60.5 23t68 11q65 0 123 -43q45 -29 77 -83t43.5 -94t16.5 -79q14 -57 21 -120.5t7 -119t-1 -119.5v-370q0 -3 -5 -13q0 -14 -6 -20q-7 -10 -18 -10q-182 0 -272 34q-143 55 -170 211v2q-25 192 79 336q35 71 138 96h2q15 3 32 3 q9 0 54 -5q16 -2 47 -2q32 0 49 11v4q-27 187 -98 264h-2q-53 59 -115 59q-67 0 -152 -61v-2q-12 -6 -22 -6q-22 0 -29 18zM119 219q23 -116 137 -156q71 -26 225 -26v311q4 168 -6 254q-8 -2 -29 -2q-18 0 -28 2h-27q-50 0 -76 -2t-61.5 -15t-58.5 -40 q-43 -63 -63.5 -150.5t-12.5 -175.5zM147 1409q0 32 17.5 59.5t46.5 42.5q0 3 4 7q8 4 14 6q24 4 37 4q41 0 70.5 -19t40.5 -51q6 -21 6 -43q0 -73 -57 -104q-32 -19 -68 -19q-38 0 -65.5 19t-34.5 51q-11 29 -11 47zM190 1401q0 -11 9 -29q21 -35 63 -35q23 0 43 17h2 q29 19 29 61q0 16 -6 31q-15 37 -60 37q-10 0 -16 -2q-8 -8 -14 -8q-22 -9 -36 -29t-14 -43z" />
<glyph unicode="&#xe6;" horiz-adv-x="1134" d="M84 944q-10 20 4 37l4 4q119 66 193 66q68 0 123 -43q45 -29 77 -83t43 -93.5t17 -77.5q8 -28 16 -84q30 86 84 149q2 0 2 2q139 133 348 133h39q12 0 21 -8.5t10 -21.5q0 -14 -7.5 -24t-19.5 -11h-41q-100 0 -174 -35q-87 -35 -149 -106q-62 -103 -74 -236 q184 -8 285 -8q55 0 141 4h2q12 0 19.5 -8.5t9.5 -22.5q0 -14 -7.5 -24t-19.5 -11q-98 -4 -162 -4q-113 0 -272 6q-2 -29 2 -100q9 -183 143 -246q85 -28 293 -53h6q28 0 33 -27q0 -14 -10 -25.5t-23 -12.5h-4q-5 0 -15.5 1t-16.5 1q-80 8 -123 14t-110 25t-114 47 q-56 32 -86 90v-135q0 -5 -4 -13q0 -11 -6 -20q-5 -8 -18 -8q-189 0 -273 34q-143 55 -170 211q-25 191 80 336q36 75 137 99h2q10 2 33 2q9 0 54 -5q32 -4 49 -4q25 0 47 11v4q-27 189 -99 264q-53 59 -116 59q-68 0 -150 -61h-2q-12 -6 -22 -6q-23 0 -29 18zM156 219 q20 -115 135 -156q69 -24 225 -24v311q2 35 2 109q-8 11 -8 28q0 11 8 19q-4 65 -8 98q-16 -4 -27 -4q-5 0 -15 1t-15 1q-4 0 -13.5 1t-13.5 1q-50 0 -76.5 -2t-62 -15t-58.5 -40q-43 -65 -62.5 -152.5t-10.5 -175.5z" />
<glyph unicode="&#xe7;" horiz-adv-x="641" d="M55 508q0 189 76 319q88 148 238 148q48 0 110 -19q23 -3 23 -32q0 -14 -7.5 -22.5t-19.5 -8.5h-4q-44 16 -94 16q-125 0 -197 -125q-67 -113 -67 -290q3 -179 73 -295q81 -144 226 -144q70 0 143 33q2 2 6 2q21 0 27 -16q10 -23 -17 -43l-2 -2q-82 -39 -153 -39 q-26 -34 -41 -62h16q38 0 66 -22q26 -22 36 -56.5t-1 -66.5q-12 -47 -52 -84q-41 -41 -88 -41q-34 0 -57 23q-10 5 -10 18q3 16 22 16q11 0 19 -8q13 -10 26 -10q23 0 51.5 22t40.5 52v2q27 55 -4 90q-21 24 -51 24q-21 0 -47 -16q-3 -8 -14 -8q-10 0 -17.5 7.5t-7.5 16.5 q0 1 1 3.5t1 3.5q1 2 19 32q20 39 38 68q-134 18 -221 162q-86 144 -86 352z" />
<glyph unicode="&#xe8;" horiz-adv-x="714" d="M66 481q0 12 6 21q3 8 14 12q17 188 117 305q68 65 158 100t190 35q27 0 39 -2q12 1 20.5 -7.5t10.5 -22.5q0 -14 -7.5 -24t-19.5 -11h-2q-12 2 -37 2q-95 0 -176 -35q-84 -37 -150 -109q-61 -102 -73 -233q153 -10 286 -10q54 0 140 4h2q25 0 28 -31q0 -14 -7 -24 t-19 -11q-98 -4 -162 -4q-131 0 -272 8q-2 -31 2 -102q10 -185 143 -244q85 -30 293 -55h6q28 0 33 -27q0 -13 -10 -25.5t-23 -13.5h-4q-6 1 -17 2.5t-16 2.5q-74 7 -120.5 13t-112.5 24.5t-113 46.5q-79 49 -113 149q-24 83 -16 178q-2 18 -2 58q-16 6 -16 30zM238 1526 q7 18 36 18q5 0 7 -2q50 -24 129 -100q8 -7 25 -23t26 -24q12 -9 8 -29q-11 -23 -31 -23q-9 0 -18 9l-29 28q-28 29 -44 45t-44 36.5t-55 31.5l-4 4q-13 13 -6 29z" />
<glyph unicode="&#xe9;" horiz-adv-x="716" d="M66 481q0 12 6 21q3 8 14 12q17 188 117 305q68 65 158 100t190 35q27 0 39 -2q12 1 20.5 -7.5t10.5 -22.5q0 -14 -7.5 -24t-19.5 -11h-2q-12 2 -37 2q-95 0 -176 -35q-84 -37 -150 -109q-61 -102 -73 -233q153 -10 286 -10q54 0 140 4h2q25 0 28 -31q0 -14 -7 -24 t-19 -11q-98 -4 -162 -4q-131 0 -272 8q-2 -31 2 -102q10 -185 143 -244q85 -30 293 -55h6q28 0 33 -27q0 -13 -10 -25.5t-23 -13.5h-4q-6 1 -17 2.5t-16 2.5q-74 7 -120.5 13t-112.5 24.5t-113 46.5q-79 49 -113 149q-24 83 -16 178q-2 18 -2 58q-16 6 -16 30zM270 1350 q0 21 9 28q18 16 49 47q2 2 12.5 12t13 12.5t12 11t12.5 11.5t11.5 10t13 10.5t12 9t13 9t12 8t13.5 7.5q2 2 6 2q27 0 35 -19q6 -15 -7 -28l-4 -4q-56 -23 -137 -113q-19 -19 -27 -29q-8 -8 -18 -8q-19 0 -31 23z" />
<glyph unicode="&#xea;" d="M66 481q0 12 6 21q3 8 14 12q17 188 117 305q68 65 158 100t190 35q27 0 39 -2q12 1 20.5 -7.5t10.5 -22.5q0 -14 -7.5 -24t-19.5 -11h-2q-12 2 -37 2q-95 0 -176 -35q-84 -37 -150 -109q-61 -102 -73 -233q153 -10 286 -10q54 0 140 4h2q25 0 28 -31q0 -14 -7 -24 t-19 -11q-98 -4 -162 -4q-131 0 -272 8q-2 -31 2 -102q10 -185 143 -244q85 -30 293 -55h6q28 0 33 -27q0 -13 -10 -25.5t-23 -13.5h-4q-6 1 -17 2.5t-16 2.5q-74 7 -120.5 13t-112.5 24.5t-113 46.5q-79 49 -113 149q-24 83 -16 178q-2 18 -2 58q-16 6 -16 30zM229 1346 q0 8 2 12q43 64 119 151v2q4 10 14.5 15t18.5 2q39 -17 76 -68l2 -4q5 -5 15.5 -14.5t15.5 -14.5l47 -47q6 -6 6 -14t-4 -16q-11 -15 -23 -15t-20 11l-4 4q-7 12 -25 26q-28 28 -33 37q-14 14 -26 29q-21 21 -25 24q-2 -2 -6.5 -7.5t-7.5 -8.5l-11 -10q-9 -12 -24 -27 q-11 -16 -29.5 -41t-25.5 -35q0 -5 -5 -10q-5 -8 -20 -8q-10 0 -18.5 8.5t-8.5 18.5z" />
<glyph unicode="&#xeb;" horiz-adv-x="710" d="M66 481q0 12 6 21q3 8 14 12q17 188 117 305q68 65 158 100t190 35q27 0 39 -2q12 1 20.5 -7.5t10.5 -22.5q0 -14 -7.5 -24t-19.5 -11h-2q-12 2 -37 2q-95 0 -176 -35q-84 -37 -150 -109q-61 -102 -73 -233q153 -10 286 -10q54 0 140 4h2q25 0 28 -31q0 -14 -7 -24 t-19 -11q-98 -4 -162 -4q-131 0 -272 8q-2 -31 2 -102q10 -185 143 -244q85 -30 293 -55h6q28 0 33 -27q0 -13 -10 -25.5t-23 -13.5h-4q-6 1 -17 2.5t-16 2.5q-74 7 -120.5 13t-112.5 24.5t-113 46.5q-79 49 -113 149q-24 83 -16 178q-2 18 -2 58q-16 6 -16 30zM188 1434 q0 44 41 67q7 10 19 10q8 2 22 2q60 0 76 -49q4 -8 4 -26q0 -50 -39 -72q-18 -12 -45 -12q-56 0 -69 49q-9 15 -9 31zM242 1430q0 -9 2 -11q9 -12 24 -12q11 0 17 6q2 0 4 2q8 4 8 21q0 8 -2 12q-7 14 -23 14h-2q-3 -6 -10 -6q-18 -11 -18 -26zM438 1438q0 44 41 67 q7 11 19 11q8 2 22 2q28 0 48.5 -13.5t27.5 -36.5q4 -8 4 -26q0 -50 -39 -72q-18 -12 -45 -12q-57 0 -70 49q-8 13 -8 31zM492 1434q0 -9 2 -11q9 -12 24 -12q11 0 17 6q2 0 4 2q8 4 8 21q0 8 -2 12q-7 14 -23 14h-2q-3 -6 -10 -6q-18 -11 -18 -26z" />
<glyph unicode="&#xec;" horiz-adv-x="370" d="M39 1526q7 18 37 18q4 0 6 -2q50 -24 129 -100q8 -7 25 -23t26 -24q12 -9 8 -29q-12 -23 -30 -23q-10 0 -19 9l-28 28q-85 89 -144 113l-4 4q-13 13 -6 29zM96 219q-8 70 4 174q0 57 11 162q10 147 10 186q0 7 1 23t1 24q9 128 -19 168l-2 2q-12 28 0 52q13 20 37 20 q17 0 29 -12l2 -2q34 -53 25 -158q0 -7 -1 -20t-1 -19q0 -57 -11 -143q-10 -112 -10 -139q0 -31 -6 -84q-14 -174 -2 -256q18 -135 110 -144q12 0 21.5 -10t9.5 -25q0 -14 -10 -24t-23 -10h-2q-74 9 -116 65q-49 57 -58 170z" />
<glyph unicode="&#xed;" horiz-adv-x="374" d="M63 1350q0 21 9 28q18 16 49 47q2 2 12.5 12t13 12.5t12 11t12.5 11.5t11.5 10t13 10.5t12 9t13 9t12 8t13.5 7.5q2 2 6 2q27 0 35 -19q6 -16 -6 -28l-5 -4q-56 -23 -137 -113q-14 -14 -26 -29q-8 -8 -19 -8q-20 0 -31 23zM96 219q-8 70 4 174q0 57 11 162q10 147 10 186 q0 7 1 23t1 24q9 128 -19 168l-2 2q-12 28 0 52q13 20 37 20q17 0 29 -12l2 -2q34 -53 25 -158q0 -7 -1 -20t-1 -19q0 -57 -11 -143q-10 -112 -10 -139q0 -31 -6 -84q-14 -174 -2 -256q18 -135 110 -144q12 0 21.5 -10t9.5 -25q0 -14 -10 -24t-23 -10h-2q-74 9 -116 65 q-49 57 -58 170z" />
<glyph unicode="&#xee;" horiz-adv-x="385" d="M8 1346q0 8 2 12q43 64 119 151v2q4 10 14.5 15t18.5 2q39 -17 76 -68l2 -4q5 -5 15 -14.5t15 -14.5l47 -47q7 -7 7 -14q0 -6 -5 -16q-11 -15 -22 -15q-13 0 -21 11l-4 4q-8 13 -24 26q-28 28 -33 37q-19 19 -27 29l-24 24q-2 -2 -6.5 -7.5t-7.5 -8.5l-11 -10 q-9 -12 -24 -27q-11 -15 -30 -40.5t-26 -35.5q0 -6 -4 -10q-5 -8 -20 -8q-11 0 -19 8.5t-8 18.5zM96 219q-8 70 4 174q0 57 11 162q10 147 10 186q0 7 1 23t1 24q9 128 -19 168l-2 2q-12 28 0 52q13 20 37 20q17 0 29 -12l2 -2q34 -53 25 -158q0 -7 -1 -20t-1 -19 q0 -57 -11 -143q-10 -112 -10 -139q0 -31 -6 -84q-14 -174 -2 -256q18 -135 110 -144q12 0 21.5 -10t9.5 -25q0 -14 -10 -24t-23 -10h-2q-74 9 -116 65q-49 57 -58 170z" />
<glyph unicode="&#xef;" horiz-adv-x="376" d="M-39 1434q0 44 41 67q7 10 18 10q8 2 23 2q60 0 76 -49q4 -8 4 -26q0 -50 -39 -72q-18 -12 -45 -12q-57 0 -70 49q-8 13 -8 31zM14 1430q0 -9 2 -11q9 -12 25 -12q10 0 16 6q2 0 4 2q9 5 9 21q0 8 -2 12q-7 14 -23 14h-2q-3 -6 -10 -6q-19 -11 -19 -26zM96 219 q-8 70 4 174q0 57 11 162q10 147 10 186q0 7 1 23t1 24q9 128 -19 168l-2 2q-12 28 0 52q13 20 37 20q17 0 29 -12l2 -2q34 -53 25 -158q0 -7 -1 -20t-1 -19q0 -57 -11 -143q-10 -112 -10 -139q0 -31 -6 -84q-14 -174 -2 -256q18 -135 110 -144q12 0 21.5 -10t9.5 -25 q0 -14 -10 -24t-23 -10h-2q-74 9 -116 65q-49 57 -58 170zM211 1438q0 44 41 67q7 11 18 11q8 2 23 2q28 0 48.5 -13.5t27.5 -36.5q4 -8 4 -26q0 -50 -39 -72q-18 -12 -45 -12q-57 0 -70 49q-8 13 -8 31zM264 1434q0 -9 2 -11q9 -12 25 -12q10 0 16 6q2 0 4 2q8 4 8 21 q0 8 -2 12q-7 14 -22 14h-2q-3 -6 -10 -6q-19 -11 -19 -26z" />
<glyph unicode="&#xf0;" horiz-adv-x="710" d="M109 1563q10 20 41 20q4 0 6 -2q66 -37 111 -108t85 -173q12 3 21 3q30 6 65 6q104 0 140 -47v-5q11 -21 0 -32q-9 -15 -25 -15q-12 0 -21 9l-4 4q-18 34 -94 34q-15 0 -61 -4q34 -76 64.5 -171.5t46.5 -156t44 -173.5q4 -16 8.5 -35t11 -42t9.5 -36q2 -8 5 -24.5 t5 -24.5q37 -164 41 -256q3 -157 -63 -246h-2q-39 -49 -98 -76.5t-123 -27.5q-69 0 -120.5 34t-76.5 97q-49 107 -12 231q31 129 131 191q9 6 20 6q18 0 27 -19q7 -19 -6 -32q0 -5 -4 -5q-54 -32 -92 -106.5t-39 -153.5q0 -116 75 -161q45 -31 99 -31q52 0 101.5 25.5 t80.5 68.5q64 105 43 291q-34 204 -133 543q-2 8 -7 21.5t-6 16.5q-2 8 -7 26t-7 26q-32 113 -63 188q-2 -1 -6 -2q-73 -20 -89 -45l-2 -4q0 -2 -2 -2q-5 -10 -20 -10q-12 0 -20.5 11.5t-8.5 29.5q0 6 4 10q31 42 123 63q-4 7 -11 21.5t-11 21.5q-65 142 -164 197q-1 0 -2 1 t-2 1q-13 13 -6 29z" />
<glyph unicode="&#xf1;" horiz-adv-x="841" d="M70 999q-12 28 0 45q10 17 30 17q14 0 27 -10q0 -2 2 -2q82 -113 109 -277q8 11 20 34t16 30q69 130 134 182q37 29 73 29q31 0 65.5 -18.5t52 -34t46.5 -44.5q0 -2 2 -2q35 -47 61 -97.5t41 -109.5t24 -105.5t13 -117t4.5 -109t0.5 -116.5q0 -201 8 -270 q0 -12 -9.5 -20.5t-21.5 -8.5q-13 0 -23 7.5t-10 18.5q-10 73 -10 283q1 115 -1 183.5t-19 163.5t-52 165q-1 1 -6.5 10.5t-9.5 14.5q-17 27 -27 42t-28.5 38t-39.5 36t-44 17h-2q-8 4 -21 4q-23 0 -38 -18.5t-21 -40.5l-4 -5q-43 -54 -127 -200q-3 -6 -33 -60q5 -69 0 -282 q-12 -272 14 -398v-2q0 -15 -12 -24q-10 -10 -25 -10q-28 0 -28 32q-16 82 -19.5 188.5t0.5 194.5q2 43 2 137q0 177 -14 267q-23 151 -98 241zM188 1430q-7 13 2 28l7 6q54 33 108 33q33 0 74 -12q6 -1 18.5 -4t18.5 -4q26 -11 43 -11h12q11 0 24 8t18.5 13.5l21.5 21.5 l2 4q9 9 20 9q15 0 21 -13q10 -16 0 -32q-1 -1 -3 -2q-1 0 -1.5 -0.5t-0.5 -1.5q-2 -2 -6 -5.5t-6 -5.5q-34 -34 -57 -43q-13 -8 -37 -8q-23 0 -35 6q-6 0 -8 2h-4q-67 23 -109 23q-44 0 -80 -25q-8 -4 -12 -4q-20 0 -31 17z" />
<glyph unicode="&#xf2;" horiz-adv-x="829" d="M94 428q0 170 70 320q90 194 256 194q12 0 20.5 -9.5t8.5 -21.5q0 -9 -7 -20q-6 -12 -22 -12q-70 0 -125 -52q-45 -42 -82 -131q-57 -141 -57 -315q0 -48 1 -73t7 -66t21.5 -73t41.5 -58q86 -62 142 -62q33 0 59 17h2q75 33 140.5 127.5t100 216.5t25.5 231 q-4 61 -22 108.5t-45.5 76t-56 45t-60.5 24.5q-11 0 -20 6q-11 11 -11 21q0 13 10.5 23.5t22.5 10.5q15 0 31 -8q9 -6 16 -6q6 0 8 -2q70 -35 114 -96t58.5 -133.5t12 -144.5t-20.5 -142l-2 -2q-43 -155 -110 -266q-100 -154 -230 -166q-12 -2 -35 -2q-92 0 -159 73 q-60 66 -85.5 170t-17.5 197zM297 1526q7 18 37 18q4 0 6 -2q50 -24 129 -100q8 -7 25 -23t26 -24q12 -9 8 -29q-12 -23 -30 -23q-10 0 -19 9l-28 28q-85 89 -144 113l-4 4q-13 13 -6 29z" />
<glyph unicode="&#xf3;" horiz-adv-x="823" d="M94 428q0 170 70 320q90 194 256 194q12 0 20.5 -9.5t8.5 -21.5q0 -9 -7 -20q-6 -12 -22 -12q-70 0 -125 -52q-45 -42 -82 -131q-57 -141 -57 -315q0 -48 1 -73t7 -66t21.5 -73t41.5 -58q86 -62 142 -62q33 0 59 17h2q75 33 140.5 127.5t100 216.5t25.5 231 q-4 61 -22 108.5t-45.5 76t-56 45t-60.5 24.5q-11 0 -20 6q-11 11 -11 21q0 13 10.5 23.5t22.5 10.5q15 0 31 -8q9 -6 16 -6q6 0 8 -2q70 -35 114 -96t58.5 -133.5t12 -144.5t-20.5 -142l-2 -2q-43 -155 -110 -266q-100 -154 -230 -166q-12 -2 -35 -2q-92 0 -159 73 q-60 66 -85.5 170t-17.5 197zM340 1350q0 22 8 28q18 16 49 47q2 2 12.5 12t13 12.5t12 11t12.5 11.5t11.5 10t13 10.5t12 9t13 9t12 8t13.5 7.5q2 2 6 2q27 0 35 -19q6 -16 -6 -28l-4 -4q-56 -23 -137 -113q-19 -19 -27 -29q-8 -8 -18 -8q-19 0 -31 23z" />
<glyph unicode="&#xf4;" horiz-adv-x="845" d="M94 428q0 170 70 320q90 194 256 194q12 0 20.5 -9.5t8.5 -21.5q0 -9 -7 -20q-6 -12 -22 -12q-70 0 -125 -52q-45 -42 -82 -131q-57 -141 -57 -315q0 -48 1 -73t7 -66t21.5 -73t41.5 -58q86 -62 142 -62q33 0 59 17h2q75 33 140.5 127.5t100 216.5t25.5 231 q-4 61 -22 108.5t-45.5 76t-56 45t-60.5 24.5q-11 0 -20 6q-11 11 -11 21q0 13 10.5 23.5t22.5 10.5q15 0 31 -8q9 -6 16 -6q6 0 8 -2q70 -35 114 -96t58.5 -133.5t12 -144.5t-20.5 -142l-2 -2q-43 -155 -110 -266q-100 -154 -230 -166q-12 -2 -35 -2q-92 0 -159 73 q-60 66 -85.5 170t-17.5 197zM274 1346q0 8 2 12q43 64 119 151v2q4 10 14.5 15t18.5 2q39 -17 76 -68l2 -4q5 -5 15.5 -14.5t15.5 -14.5l47 -47q6 -6 6 -14t-4 -16q-11 -15 -23 -15t-20 11l-4 4q-7 12 -25 26q-28 28 -33 37q-14 14 -26 29q-21 21 -25 24q-2 -2 -6.5 -7.5 t-7.5 -8.5l-10 -10q-6 -8 -25 -27q-11 -16 -29.5 -41t-25.5 -35q0 -6 -4 -10q-5 -8 -21 -8q-11 0 -19 8.5t-8 18.5z" />
<glyph unicode="&#xf5;" horiz-adv-x="827" d="M94 428q0 170 70 320q90 194 256 194q12 0 20.5 -9.5t8.5 -21.5q0 -9 -7 -20q-6 -12 -22 -12q-70 0 -125 -52q-45 -42 -82 -131q-57 -141 -57 -315q0 -48 1 -73t7 -66t21.5 -73t41.5 -58q86 -62 142 -62q33 0 59 17h2q75 33 140.5 127.5t100 216.5t25.5 231 q-4 61 -22 108.5t-45.5 76t-56 45t-60.5 24.5q-11 0 -20 6q-11 11 -11 21q0 13 10.5 23.5t22.5 10.5q15 0 31 -8q9 -6 16 -6q6 0 8 -2q70 -35 114 -96t58.5 -133.5t12 -144.5t-20.5 -142l-2 -2q-43 -155 -110 -266q-100 -154 -230 -166q-12 -2 -35 -2q-92 0 -159 73 q-60 66 -85.5 170t-17.5 197zM229 1430q-7 13 2 28l7 6q54 33 108 33q34 0 74 -12q6 -1 18.5 -4t18.5 -4q26 -11 43 -11h12q5 0 9.5 1t10 4t8.5 5t9.5 8t8 7.5l9 9l8.5 8.5l3 4q9 9 20 9q14 0 20 -13q10 -16 0 -32l-4 -4q-2 -2 -6 -5.5t-6 -5.5q-34 -34 -57 -43 q-13 -8 -37 -8q-23 0 -35 6q-6 0 -8 2h-4q-67 23 -109 23q-44 0 -80 -25q-8 -4 -12 -4q-20 0 -31 17z" />
<glyph unicode="&#xf6;" horiz-adv-x="837" d="M94 428q0 170 70 320q90 194 256 194q12 0 20.5 -9.5t8.5 -21.5q0 -9 -7 -20q-6 -12 -22 -12q-70 0 -125 -52q-45 -42 -82 -131q-57 -141 -57 -315q0 -48 1 -73t7 -66t21.5 -73t41.5 -58q86 -62 142 -62q33 0 59 17h2q75 33 140.5 127.5t100 216.5t25.5 231 q-4 61 -22 108.5t-45.5 76t-56 45t-60.5 24.5q-11 0 -20 6q-11 11 -11 21q0 13 10.5 23.5t22.5 10.5q15 0 31 -8q9 -6 16 -6q6 0 8 -2q70 -35 114 -96t58.5 -133.5t12 -144.5t-20.5 -142l-2 -2q-43 -155 -110 -266q-100 -154 -230 -166q-12 -2 -35 -2q-92 0 -159 73 q-60 66 -85.5 170t-17.5 197zM229 1434q0 44 41 67q7 10 19 10q8 2 22 2q60 0 76 -49q4 -8 4 -26q0 -50 -39 -72q-18 -12 -45 -12q-56 0 -69 49q-9 15 -9 31zM283 1430q0 -9 2 -11q9 -12 24 -12q11 0 17 6q2 0 4 2q8 4 8 21q0 8 -2 12q-7 14 -23 14h-2q-3 -6 -10 -6 q-18 -11 -18 -26zM479 1438q0 44 41 67q7 11 19 11q8 2 22 2q28 0 48.5 -13.5t27.5 -36.5q4 -8 4 -26q0 -50 -39 -72q-18 -12 -45 -12q-57 0 -70 49q-8 13 -8 31zM532 1434q0 -8 3 -11q9 -12 24 -12q10 0 16 6q3 0 5 2q8 4 8 21q0 8 -2 12q-7 14 -23 14h-2q-3 -6 -10 -6 q-19 -11 -19 -26z" />
<glyph unicode="&#xf7;" horiz-adv-x="825" d="M86 524q0 16 7 23.5t16 7.5q26 0 76.5 -1t74.5 -1q140 -4 215 -4q96 0 240 8q8 0 15.5 -7.5t8.5 -21.5q0 -28 -20 -32h-2q-117 -9 -260 -9q-139 0 -207 2q-22 0 -69.5 1.5t-71.5 1.5q-23 0 -23 32zM309 272q0 29 16 54.5t44 38.5q0 2 4 6t12 4q24 4 35 4q36 0 62.5 -17 t37.5 -47v-2q6 -15 6 -34q-3 -70 -53 -97q-29 -16 -61 -16q-36 0 -61.5 17t-31.5 46q-10 23 -10 43zM309 758q0 29 16 53.5t44 38.5q0 2 4 6t12 4q24 4 35 4q77 0 100 -63v-2q6 -15 6 -35q-3 -69 -53 -96q-31 -17 -61 -17q-36 0 -61.5 17.5t-31.5 46.5q-10 23 -10 43z M350 266q0 -8 8 -28q21 -31 56 -31q24 0 41 14l2 2q24 15 24 49q0 17 -6 29v2q-15 35 -51 35q-3 0 -8 -1t-8 -1q-4 -6 -15 -10q-19 -8 -31 -24.5t-12 -35.5zM350 752q0 -9 8 -29q21 -31 56 -31q22 0 41 15l2 2q24 15 24 49q0 16 -6 28v2q-15 35 -51 35q-3 0 -8 -1t-8 -1 q-4 -6 -15 -10q-19 -8 -31 -24t-12 -35z" />
<glyph unicode="&#xf8;" horiz-adv-x="856" d="M82 494q-1 127 28.5 238t82.5 179v4q0 7 8 15q4 2 8 6q3 2 10 6t10 6q12 8 17 13q1 0 2 1t2 1q4 2 16 2q76 26 146 26q77 0 145 -33l18 54q3 22 25 22q12 0 22.5 -6.5t10.5 -17.5v-6q-15 -38 -29 -78l4 -2q126 -100 164 -299q21 -215 -20 -361l-2 -2l-7 -12 q-15 -33 -24 -50.5t-27.5 -48t-36.5 -49.5t-46.5 -39.5t-61.5 -33.5q-79 -27 -135 -27q-81 0 -146 41q-4 -8 -39 -66l-4 -4q-13 -10 -26 -10q-9 0 -16 6.5t-7 16.5q0 6 2 8q35 59 47 84q-70 70 -102 176q-36 100 -39 240zM135 477q0 -160 55 -264q30 -57 58 -90 q47 93 94 212t70.5 188.5t70.5 213.5q27 87 58 174q-20 11 -60 23q-36 8 -78 8q-75 0 -133 -33q-63 -46 -100 -159q-35 -143 -35 -273zM291 86q33 -23 71 -29q30 -6 60 -6q76 0 134 38.5t87 90.5v2q54 73 70 154t16 186q-16 215 -121 324l-2 2q-5 13 -18 26l-43 -135 q-50 -155 -75 -228.5t-75.5 -200t-103.5 -224.5z" />
<glyph unicode="&#xf9;" horiz-adv-x="890" d="M84 429.5q-2 84.5 7 179t16.5 153.5t23.5 162q0 12 9.5 20t21.5 8q13 0 22 -8t9 -20v-2q-6 -76 -19 -164q-11 -93 -15.5 -143t-5 -128.5t10.5 -140.5v-2q0 -199 98 -266q54 -23 94 -23q55 0 88 33q86 86 138 238v34q0 18 18 25q28 99 43 180q32 296 62 422q0 17 8.5 25 t19.5 8q13 0 24 -11.5t11 -23.5v-4q-17 -64 -45 -252q-27 -194 -47 -264l-2 -12q-4 -18 -14 -57.5t-15 -61.5q5 -116 29 -174q38 -80 125 -80q12 0 19 -9.5t7 -23.5q0 -33 -26 -33q-99 0 -154 76q-29 39 -45 105q-62 -139 -151 -181q-52 -20 -91 -20q-97 0 -172 90 q-62 71 -88 178v2q-12 81 -14 165.5zM297 1526q7 18 37 18q4 0 6 -2q50 -24 129 -100q8 -7 25 -23t26 -24q12 -9 8 -29q-12 -23 -30 -23q-10 0 -19 9l-28 28q-85 89 -144 113l-4 4q-13 13 -6 29z" />
<glyph unicode="&#xfa;" horiz-adv-x="903" d="M84 429.5q-2 84.5 7 179t16.5 153.5t23.5 162q0 12 9.5 20t21.5 8q13 0 22 -8t9 -20v-2q-6 -76 -19 -164q-11 -93 -15.5 -143t-5 -128.5t10.5 -140.5v-2q0 -199 98 -266q54 -23 94 -23q55 0 88 33q86 86 138 238v34q0 18 18 25q28 99 43 180q32 296 62 422q0 17 8.5 25 t19.5 8q13 0 24 -11.5t11 -23.5v-4q-17 -64 -45 -252q-27 -194 -47 -264l-2 -12q-4 -18 -14 -57.5t-15 -61.5q5 -116 29 -174q38 -80 125 -80q12 0 19 -9.5t7 -23.5q0 -33 -26 -33q-99 0 -154 76q-29 39 -45 105q-62 -139 -151 -181q-52 -20 -91 -20q-97 0 -172 90 q-62 71 -88 178v2q-12 81 -14 165.5zM340 1350q0 22 8 28q18 16 49 47q2 2 12.5 12t13 12.5t12 11t12.5 11.5t11.5 10t13 10.5t12 9t13 9t12 8t13.5 7.5q2 2 6 2q27 0 35 -19q6 -16 -6 -28l-4 -4q-56 -23 -137 -113q-19 -19 -27 -29q-8 -8 -18 -8q-19 0 -31 23z" />
<glyph unicode="&#xfb;" horiz-adv-x="905" d="M84 429.5q-2 84.5 7 179t16.5 153.5t23.5 162q0 12 9.5 20t21.5 8q13 0 22 -8t9 -20v-2q-6 -76 -19 -164q-11 -93 -15.5 -143t-5 -128.5t10.5 -140.5v-2q0 -199 98 -266q54 -23 94 -23q55 0 88 33q86 86 138 238v34q0 18 18 25q28 99 43 180q32 296 62 422q0 17 8.5 25 t19.5 8q13 0 24 -11.5t11 -23.5v-4q-17 -64 -45 -252q-27 -194 -47 -264l-2 -12q-4 -18 -14 -57.5t-15 -61.5q5 -116 29 -174q38 -80 125 -80q12 0 19 -9.5t7 -23.5q0 -33 -26 -33q-99 0 -154 76q-29 39 -45 105q-62 -139 -151 -181q-52 -20 -91 -20q-97 0 -172 90 q-62 71 -88 178v2q-12 81 -14 165.5zM274 1346q0 8 2 12q43 64 119 151v2q4 10 14.5 15t18.5 2q39 -17 76 -68l2 -4q5 -5 15.5 -14.5t15.5 -14.5l47 -47q6 -6 6 -14t-4 -16q-11 -15 -23 -15t-20 11l-4 4q-7 12 -25 26q-28 28 -33 37q-14 14 -26 29q-21 21 -25 24 q-2 -2 -6.5 -7.5t-7.5 -8.5l-10 -10q-6 -8 -25 -27q-11 -16 -29.5 -41t-25.5 -35q0 -6 -4 -10q-5 -8 -21 -8q-11 0 -19 8.5t-8 18.5z" />
<glyph unicode="&#xfc;" horiz-adv-x="892" d="M84 429.5q-2 84.5 7 179t16.5 153.5t23.5 162q0 12 9.5 20t21.5 8q13 0 22 -8t9 -20v-2q-6 -76 -19 -164q-11 -93 -15.5 -143t-5 -128.5t10.5 -140.5v-2q0 -199 98 -266q54 -23 94 -23q55 0 88 33q86 86 138 238v34q0 18 18 25q28 99 43 180q32 296 62 422q0 17 8.5 25 t19.5 8q13 0 24 -11.5t11 -23.5v-4q-17 -64 -45 -252q-27 -194 -47 -264l-2 -12q-4 -18 -14 -57.5t-15 -61.5q5 -116 29 -174q38 -80 125 -80q12 0 19 -9.5t7 -23.5q0 -33 -26 -33q-99 0 -154 76q-29 39 -45 105q-62 -139 -151 -181q-52 -20 -91 -20q-97 0 -172 90 q-62 71 -88 178v2q-12 81 -14 165.5zM229 1434q0 44 41 67q7 10 19 10q8 2 22 2q60 0 76 -49q4 -8 4 -26q0 -50 -39 -72q-18 -12 -45 -12q-56 0 -69 49q-9 15 -9 31zM283 1430q0 -9 2 -11q9 -12 24 -12q11 0 17 6q2 0 4 2q8 4 8 21q0 8 -2 12q-7 14 -23 14h-2q-3 -6 -10 -6 q-18 -11 -18 -26zM479 1438q0 44 41 67q7 11 19 11q8 2 22 2q28 0 48.5 -13.5t27.5 -36.5q4 -8 4 -26q0 -50 -39 -72q-18 -12 -45 -12q-57 0 -70 49q-8 13 -8 31zM532 1434q0 -8 3 -11q9 -12 24 -12q10 0 16 6q3 0 5 2q8 4 8 21q0 8 -2 12q-7 14 -23 14h-2q-3 -6 -10 -6 q-19 -11 -19 -26z" />
<glyph unicode="&#xfd;" horiz-adv-x="811" d="M109 879q1 26 12.5 41.5t28.5 15.5q14 0 26 -12q4 -4 4 -6q170 -467 275 -887q2 -2 0 -4q0 -12 -9.5 -18.5t-23.5 -6.5q-15 0 -25 7.5t-10 19.5q-106 427 -276 843q0 1 -1 3.5t-1 3.5zM242 -813q37 138 129 459q78 267 119 417.5t89.5 384.5t79.5 480q0 10 9.5 17t23.5 7 q20 0 29 -12q9 -9 6 -20q-31 -244 -79.5 -477.5t-88.5 -383t-117 -415.5q-69 -231 -133 -467q-3 -33 -30 -33q-15 0 -29 14q-11 14 -8 25v4zM340 1350q0 22 8 28q18 16 49 47q2 2 12.5 12t13 12.5t12 11t12.5 11.5t11.5 10t13 10.5t12 9t13 9t12 8t13.5 7.5q2 2 6 2 q27 0 35 -19q6 -16 -6 -28l-4 -4q-56 -23 -137 -113q-19 -19 -27 -29q-8 -8 -18 -8q-19 0 -31 23z" />
<glyph unicode="&#xfe;" horiz-adv-x="595" d="M68 72q3 7 10 10q0 51 1 155t1 154q6 322 6 658q0 16 8.5 25t18.5 9q11 0 19.5 -9t8.5 -25q0 -236 -2 -353l2 -2q92 -2 171 -34t126 -87q51 -66 73 -150.5t11 -172.5q0 -69 -28 -127q-35 -65 -97 -84h-2q-66 -16 -149 -16q-12 0 -38 1t-38 1q-27 0 -39 2q-2 -115 -2 -310 q0 -10 -8 -17t-19 -7t-18.5 7t-7.5 17q0 201 2 318q-18 18 -10 37zM131 78h53q31 -2 88 -2t82 4q115 31 115 182q0 190 -78 279q-92 97 -252 100q-1 -42 -2 -125.5t-2 -124.5q-1 -51 -2 -156t-2 -157z" />
<glyph unicode="&#xff;" horiz-adv-x="827" d="M109 879q1 26 12.5 41.5t28.5 15.5q14 0 26 -12q4 -4 4 -6q170 -467 275 -887q2 -2 0 -4q0 -12 -9.5 -18.5t-23.5 -6.5q-15 0 -25 7.5t-10 19.5q-106 427 -276 843q0 1 -1 3.5t-1 3.5zM229 1434q0 44 41 67q7 10 19 10q8 2 22 2q60 0 76 -49q4 -8 4 -26q0 -50 -39 -72 q-18 -12 -45 -12q-56 0 -69 49q-9 15 -9 31zM242 -813q37 138 129 459q78 267 119 417.5t89.5 384.5t79.5 480q0 10 9.5 17t23.5 7q20 0 29 -12q9 -9 6 -20q-31 -244 -79.5 -477.5t-88.5 -383t-117 -415.5q-69 -231 -133 -467q-3 -33 -30 -33q-15 0 -29 14q-11 14 -8 25v4z M283 1430q0 -9 2 -11q9 -12 24 -12q11 0 17 6q2 0 4 2q8 4 8 21q0 8 -2 12q-7 14 -23 14h-2q-3 -6 -10 -6q-18 -11 -18 -26zM479 1438q0 44 41 67q7 11 19 11q8 2 22 2q28 0 48.5 -13.5t27.5 -36.5q4 -8 4 -26q0 -50 -39 -72q-18 -12 -45 -12q-57 0 -70 49q-8 13 -8 31z M532 1434q0 -8 3 -11q9 -12 24 -12q10 0 16 6q3 0 5 2q8 4 8 21q0 8 -2 12q-7 14 -23 14h-2q-3 -6 -10 -6q-19 -11 -19 -26z" />
<glyph unicode="&#x2c6;" horiz-adv-x="436" d="M63 1346q0 6 3 12q46 69 118 151v2q4 10 14.5 15t18.5 2q39 -17 76 -68l2 -4q5 -5 15.5 -14.5t15.5 -14.5l47 -47q6 -6 6 -14t-4 -16q-11 -15 -23 -15t-20 11l-4 4q-7 12 -25 26q-28 28 -33 37q-14 14 -26 29q-21 21 -25 24q-2 -2 -6.5 -7.5t-7.5 -8.5l-10 -10 q-6 -8 -25 -27q-11 -16 -29.5 -41t-25.5 -35q0 -6 -4 -10q-5 -8 -21 -8q-10 0 -18.5 8.5t-8.5 18.5z" />
<glyph unicode="&#x2dc;" horiz-adv-x="462" d="M45 1448q-7 14 2 29l6 6q54 33 109 33q30 0 74 -13q6 -1 18 -4t18 -4q23 -10 43 -10h13q5 0 9.5 1t10 4t8.5 5t9.5 8t8 7.5l9 9l8.5 8.5l2 4q8 8 21 8q14 0 20 -12q10 -16 0 -33l-4 -4q-2 -2 -6 -5t-6 -5q-33 -33 -58 -43q-13 -8 -36 -8t-35 6q-6 0 -8 2h-5 q-64 22 -108 22q-46 0 -80 -24q-8 -4 -12 -4q-20 0 -31 16z" />
<glyph unicode="&#x2000;" horiz-adv-x="949" />
<glyph unicode="&#x2001;" horiz-adv-x="1898" />
<glyph unicode="&#x2002;" horiz-adv-x="949" />
<glyph unicode="&#x2003;" horiz-adv-x="1898" />
<glyph unicode="&#x2004;" horiz-adv-x="632" />
<glyph unicode="&#x2005;" horiz-adv-x="474" />
<glyph unicode="&#x2006;" horiz-adv-x="316" />
<glyph unicode="&#x2007;" horiz-adv-x="316" />
<glyph unicode="&#x2008;" horiz-adv-x="237" />
<glyph unicode="&#x2009;" horiz-adv-x="379" />
<glyph unicode="&#x200a;" horiz-adv-x="105" />
<glyph unicode="&#x2010;" d="M78 512q0 14 4 14q39 0 126 -2t137 -2.5t123 1t134 5.5q2 0 3.5 -6t1 -12.5t-4.5 -7.5q-78 -6 -162 -7t-197 1t-161 2q-4 0 -4 14z" />
<glyph unicode="&#x2011;" d="M78 512q0 14 4 14q39 0 126 -2t137 -2.5t123 1t134 5.5q2 0 3.5 -6t1 -12.5t-4.5 -7.5q-78 -6 -162 -7t-197 1t-161 2q-4 0 -4 14z" />
<glyph unicode="&#x2012;" d="M78 512q0 14 4 14q39 0 126 -2t137 -2.5t123 1t134 5.5q2 0 3.5 -6t1 -12.5t-4.5 -7.5q-78 -6 -162 -7t-197 1t-161 2q-4 0 -4 14z" />
<glyph unicode="&#x2013;" horiz-adv-x="1203" d="M78 512q0 14 8 14q75 0 243.5 -2t265.5 -2.5t238.5 1t259.5 5.5q4 0 7 -6t2 -12.5t-9 -7.5q-151 -6 -313.5 -7t-381.5 1t-312 2q-8 0 -8 14z" />
<glyph unicode="&#x2014;" horiz-adv-x="2227" d="M78 512q0 14 15 14q152 0 489 -2t530.5 -2.5t476.5 1t519 5.5q8 0 13.5 -6t4 -12.5t-17.5 -7.5q-302 -6 -627.5 -7t-763.5 1t-624 2q-15 0 -15 14z" />
<glyph unicode="&#x2018;" horiz-adv-x="382" d="M92 1491q0 80 23 129q28 67 114 113h11q10 0 19.5 -5.5t10.5 -15.5q0 -16 -12 -18q-39 -17 -64.5 -41.5t-36 -54t-13.5 -55.5t-1 -58q19 -142 115 -225q2 0 2 -3q8 -8 4 -22q-7 -12 -26 -12q-13 0 -17 2l-4 4q-113 110 -125 262z" />
<glyph unicode="&#x2019;" horiz-adv-x="354" d="M74 1722q8 15 24 15h17q4 -4 6 -4q118 -103 137 -256q0 -92 -14 -131q-24 -66 -113 -119h-2q-1 0 -4 1t-4 1q-9 -2 -18.5 2.5t-10.5 15.5q-4 11 10 21q124 58 103 213q-19 138 -125 219q-2 0 0 2q-6 3 -6 20z" />
<glyph unicode="&#x202f;" horiz-adv-x="379" />
<glyph unicode="&#x205f;" horiz-adv-x="474" />
<glyph unicode="&#x25fc;" horiz-adv-x="1054" d="M0 0v1055h1055v-1055h-1055z" />
</font>
</defs>
</svg>
